<svg role="document" aria-labelledby="mafl3_04.205_title" version="1.1" id="mafl3_04.205Artwork" xmlns="http://www.w3.org/2000/svg" xmlns:xlink="http://www.w3.org/1999/xlink" x="0" y="0" viewBox="0 0 760 466.757" xml:space="preserve"> <title id="mafl3_04.205_title">Art Store Items</title>
  <font horiz-adv-x="2000">
    <font-face font-family="TVOUrbanist-Bold" units-per-em="2000" underline-position="-100" underline-thickness="50"/>
    <glyph unicode="A" horiz-adv-x="1413" d="M589 1400L80 0h212l99 270h632l98-270h212L824 1400M464 470l242 667 243-667z"/>
    <glyph unicode="Æ" horiz-adv-x="1653" d="M80 0h212l99 270h435V0h727v200h-527v400h431v200h-431v400h527v200H589M464 470l266 730h96V470z"/>
    <glyph unicode="Á" horiz-adv-x="1413" d="M651 1500h102l178 288H731m-142-388L80 0h212l99 270h632l98-270h212L824 1400M464 470l242 667 243-667z"/>
    <glyph unicode="Â" horiz-adv-x="1413" d="M611 1734l-101-234h133l65 153 63-153h133l-100 234m-215-334L80 0h212l99 270h632l98-270h212L824 1400M464 470l242 667 243-667z"/>
    <glyph unicode="Ä" horiz-adv-x="1413" d="M528 1518c60 0 106 46 106 106 0 29-10 55-31 76s-46 31-75 31c-31 0-56-10-77-31s-32-47-32-76c0-30 11-55 32-75 21-21 46-31 77-31m361 0c30 0 55 10 76 31 21 20 31 45 31 75 0 29-10 55-31 76s-47 31-76 31c-31 0-56-10-77-31s-31-46-31-76c0-61 47-106 108-106m-300-118L80 0h212l99 270h632l98-270h212L824 1400M464 470l242 667 243-667z"/>
    <glyph unicode="À" horiz-adv-x="1413" d="M472 1788l178-288h102l-80 288m-83-388L80 0h212l99 270h632l98-270h212L824 1400M464 470l242 667 243-667z"/>
    <glyph unicode="Å" horiz-adv-x="1413" d="M707 1474c95 0 174 79 174 176 0 93-79 173-174 173s-174-80-174-173c0-95 79-176 174-176m0 84c-51 0-90 40-90 92 0 24 9 45 27 62 17 17 38 26 63 26s46-9 64-26c17-17 26-38 26-62 0-52-39-92-90-92m-118-158L80 0h212l99 270h632l98-270h212L824 1400M464 470l242 667 243-667z"/>
    <glyph unicode="Ã" horiz-adv-x="1413" d="M863 1503c102 0 176 75 176 180 0 28-5 56-14 83l-124-40c5-14 7-28 7-41 0-29-11-50-38-50-20 0-49 16-114 55-95 57-154 89-205 89-106 0-175-76-175-176 0-28 5-56 14-83l123 34c-3 10-5 21-5 34 0 27 11 47 30 58 3 2 7 3 12 3 24 0 57-20 124-61 87-55 142-85 189-85m-274-103L80 0h212l99 270h632l98-270h212L824 1400M464 470l242 667 243-667z"/>
    <glyph unicode="B" horiz-adv-x="1149" d="M120 1399V0h553c72 0 138 17 199 51 121 67 197 191 197 339 0 53-7 105-21 158-14 52-37 99-70 140s-77 68-130 82c90 32 150 149 150 263 0 75-17 140-50 195-68 110-190 171-334 171M320 844v381h273c59 0 108-16 147-49s58-81 58-142c0-116-91-190-205-190M320 173v500h335c42 0 81-11 117-34 72-46 117-128 117-212 0-48-10-91-31-130-42-77-118-124-203-124z"/>
    <glyph unicode="C" horiz-adv-x="1398" d="M748-26c111 0 214 26 310 77 95 51 175 122 240 211l-178 97c-45-57-99-102-164-135s-135-50-208-50c-88 0-169 24-244 71S370 356 326 437c-44 80-66 168-66 263 0 94 22 181 66 262 43 81 102 145 177 193 75 47 156 71 245 71 72 0 141-16 207-49 65-33 120-78 165-135l178 95c-65 89-145 160-240 212-96 51-199 77-310 77-125 0-240-32-345-97s-189-154-250-265C91 953 60 831 60 700s31-253 93-364c61-111 145-199 250-264s220-98 345-98z"/>
    <glyph unicode="Ç" horiz-adv-x="1398" d="M799-408c56 0 103 14 142 43s58 71 58 125c0 53-19 94-56 122-38 28-84 42-139 42v52c90 7 175 32 254 75 96 51 176 122 240 211l-178 97c-45-57-99-102-164-135s-135-50-208-50c-88 0-169 24-244 71S370 356 326 437c-44 80-66 168-66 263 0 94 22 181 66 262 43 81 102 145 177 193 75 47 156 71 245 71 72 0 141-16 207-49 65-33 120-78 165-135l178 95c-65 89-145 160-240 212-96 51-199 77-310 77-125 0-240-32-345-97s-189-154-250-265C91 953 60 831 60 700s31-252 93-363c61-111 145-200 250-265 83-52 173-83 269-94v-168h93c48 0 73-11 73-47s-25-48-73-48H586v-123z"/>
    <glyph unicode="D" horiz-adv-x="1343" d="M120 1400V0h463c127 0 244 32 351 95s192 148 255 255 94 223 94 350-31 244-94 351-148 192-255 255-224 94-351 94M320 200v1000h263c90 0 173-22 250-67s138-106 183-182c45-77 67-160 67-251s-22-174-67-251-106-137-183-182-160-67-250-67z"/>
    <glyph unicode="E" horiz-adv-x="1087" d="M120 0h867v200H320v450h539v200H320v350h667v200H120z"/>
    <glyph unicode="É" horiz-adv-x="1087" d="M445 1500h102l178 288H525M120 0h867v200H320v450h539v200H320v350h667v200H120z"/>
    <glyph unicode="Ê" horiz-adv-x="1087" d="M447 1734l-101-234h133l65 153 63-153h133l-100 234M120 0h867v200H320v450h539v200H320v350h667v200H120z"/>
    <glyph unicode="Ë" horiz-adv-x="1087" d="M366 1518c60 0 106 46 106 106 0 29-10 55-31 76s-46 31-75 31c-31 0-56-10-77-31s-32-47-32-76c0-30 11-55 32-75 21-21 46-31 77-31m361 0c30 0 55 10 76 31 21 20 31 45 31 75 0 29-10 55-31 76s-47 31-76 31c-31 0-56-10-77-31s-31-46-31-76c0-61 47-106 108-106M120 0h867v200H320v450h539v200H320v350h667v200H120z"/>
    <glyph unicode="È" horiz-adv-x="1087" d="M295 1788l178-288h102l-80 288M120 0h867v200H320v450h539v200H320v350h667v200H120z"/>
    <glyph unicode="Ð" horiz-adv-x="1458" d="M235 650V0h463c127 0 244 32 351 95s192 148 255 255 94 223 94 350-31 244-94 351-148 192-255 255-224 94-351 94H235V850H100V650m335-450v450h305v200H435v350h263c89 0 172-22 249-67s138-105 183-182 68-160 68-251c0-89-22-172-67-249s-105-138-182-183-160-68-251-68z"/>
    <glyph unicode="€" horiz-adv-x="1140" d="M1060 191c-40-10-79-15-118-15-196 0-372 126-446 320h295v142H456l-1 122h336v142H495c24 64 58 120 103 169 89 97 212 154 344 154 39 0 78-5 118-15v206c-42 7-82 11-119 11-101 0-197-22-288-66s-169-106-234-185c-65-80-112-171-140-274H80V760h174V638H80V496h199c28-102 74-192 139-271S560 84 651 40c90-44 186-66 288-66 38 0 78 4 121 11z"/>
    <glyph unicode="F" horiz-adv-x="964" d="M120 0h200v650h528v200H320v350h624v200H120z"/>
    <glyph unicode="G" horiz-adv-x="1497" d="M749-26c125 0 240 33 346 98 105 65 189 153 250 264 61 110 91 230 91 359v4H895V523h306c-22-69-56-129-101-182-91-105-216-167-349-167-89 0-171 24-246 71S370 355 326 435s-66 168-66 263c0 97 22 186 67 267s105 144 180 191 156 70 243 70c139 0 274-66 370-186l179 97c-69 93-151 165-246 214s-196 74-301 74c-121 0-235-31-341-94-107-63-192-150-255-261-64-111-96-234-96-369 0-131 31-253 92-364S296 137 401 72s221-98 348-98z"/>
    <glyph unicode="ẞ" horiz-adv-x="1173" d="M120 0h200v968c0 47 11 90 34 129 45 79 125 128 210 128 65 0 117-8 156-25 38-17 57-48 58-93 0-28-26-68-89-157-84-119-129-191-129-247v-3l2-78h75c47 0 94-8 139-23 91-32 157-99 157-200 0-51-15-94-44-128-60-68-156-98-251-98h-87L594 0h63c75 0 148 16 218 47s127 76 172 137c44 60 66 131 66 213 0 57-16 112-47 163-32 51-74 93-125 124-52 31-106 47-162 47-15 0-29-1-43-3 15 20 50 63 104 130 40 50 69 87 86 111 35 47 56 90 56 134 0 57-18 108-53 153-36 45-83 80-142 105s-122 38-189 38c-86 0-166-21-239-64s-131-101-174-174-65-153-65-240z"/>
    <glyph unicode="H" horiz-adv-x="1285" d="M965 1400V850H320v550H120V0h200v650h645V0h200v1400z"/>
    <glyph unicode="I" horiz-adv-x="500" d="M150 0h200v1400H150z"/>
    <glyph unicode="Í" horiz-adv-x="526" d="M206 1500h102l178 288H286M150 0h200v1400H150z"/>
    <glyph unicode="Î" horiz-adv-x="514" d="M161 1734L60 1500h133l65 153 63-153h133l-100 234M157 0h200v1400H157z"/>
    <glyph unicode="Ï" horiz-adv-x="597" d="M119 1474c60 0 106 46 106 106 0 29-10 55-31 76s-46 31-75 31c-31 0-56-10-77-31s-32-47-32-76c0-30 11-55 32-75 21-21 46-31 77-31m361 0c30 0 55 10 76 31 21 20 31 45 31 75 0 29-10 55-31 76s-47 31-76 31c-31 0-56-10-77-31s-31-46-31-76c0-61 47-106 108-106M200 0h200v1400H200z"/>
    <glyph unicode="Ì" horiz-adv-x="529" d="M40 1788l178-288h102l-80 288M179 0h200v1400H179z"/>
    <glyph unicode="J" horiz-adv-x="852" d="M310-26c76 0 146 20 211 59s116 92 154 158 57 137 57 213v796h120v200H310v-200h222V404c0-40-10-78-30-113-40-71-112-117-192-117-56 0-105 21-142 52L40 72c75-64 170-98 270-98z"/>
    <glyph unicode="K" horiz-adv-x="1128" d="M1091 0L540 739l555 661H834L320 787v613H120V0h200v476l89 107L831 0z"/>
    <glyph unicode="L" horiz-adv-x="1028" d="M120 0h808v200H320v1200H120z"/>
    <glyph unicode="M" horiz-adv-x="1827" d="M120 0h204l184 953L846 58h134l339 895L1503 0h204l-272 1400h-160L914 447l-363 953H391z"/>
    <glyph unicode="N" horiz-adv-x="1335" d="M133 0h200v1039L987 0h216v1400h-200V361L349 1400H133z"/>
    <glyph unicode="Ñ" horiz-adv-x="1335" d="M824 1503c102 0 176 75 176 180 0 28-5 56-14 83l-124-40c5-14 7-28 7-41 0-29-11-50-38-50-20 0-49 16-114 55-95 57-154 89-205 89-106 0-175-76-175-176 0-28 5-56 14-83l123 34c-3 10-5 21-5 34 0 27 11 47 30 58 3 2 7 3 12 3 24 0 57-20 124-61 87-55 142-85 189-85M133 0h200v1039L987 0h216v1400h-200V361L349 1400H133z"/>
    <glyph unicode="O" horiz-adv-x="1540" d="M770-26c125 0 240 33 346 98 105 65 189 154 251 265s93 232 93 363-31 253-93 364-146 199-251 264c-106 65-221 98-346 98s-240-33-345-98c-106-65-190-153-252-264S80 831 80 700s31-252 93-363S319 137 425 72C530 7 645-26 770-26m0 200c-89 0-170 24-245 71S390 356 346 437s-66 168-66 263c0 94 22 181 66 262s104 145 179 193c75 47 156 71 245 71s171-24 246-71 134-111 178-192 66-168 66-263c0-94-22-181-66-262s-103-145-178-192c-75-48-157-72-246-72z"/>
    <glyph unicode="Œ" horiz-adv-x="2142" d="M770-26c99 0 192 23 279 69 86 46 157 108 213 186V0h780v200h-580v400h484v200h-484v400h580v200h-780v-229c-56 78-127 140-213 186-87 46-180 69-279 69-125 0-240-33-345-98-106-65-190-153-252-264S80 831 80 700s31-252 93-363S319 137 425 72C530 7 645-26 770-26m0 200c-89 0-170 24-245 71S390 356 346 437s-66 168-66 263c0 94 22 181 66 262s104 145 179 193c75 47 156 71 245 71s171-24 246-71 134-111 178-192 66-168 66-263c0-94-22-181-66-262s-103-145-178-192c-75-48-157-72-246-72z"/>
    <glyph unicode="Ó" horiz-adv-x="1540" d="M722 1500h102l178 288H802M770-26c125 0 240 33 346 98 105 65 189 154 251 265s93 232 93 363-31 253-93 364-146 199-251 264c-106 65-221 98-346 98s-240-33-345-98c-106-65-190-153-252-264S80 831 80 700s31-252 93-363S319 137 425 72C530 7 645-26 770-26m0 200c-89 0-170 24-245 71S390 356 346 437s-66 168-66 263c0 94 22 181 66 262s104 145 179 193c75 47 156 71 245 71s171-24 246-71 134-111 178-192 66-168 66-263c0-94-22-181-66-262s-103-145-178-192c-75-48-157-72-246-72z"/>
    <glyph unicode="Ô" horiz-adv-x="1540" d="M675 1734l-101-234h133l65 153 63-153h133l-100 234M770-26c125 0 240 33 346 98 105 65 189 154 251 265s93 232 93 363-31 253-93 364-146 199-251 264c-106 65-221 98-346 98s-240-33-345-98c-106-65-190-153-252-264S80 831 80 700s31-252 93-363S319 137 425 72C530 7 645-26 770-26m0 200c-89 0-170 24-245 71S390 356 346 437s-66 168-66 263c0 94 22 181 66 262s104 145 179 193c75 47 156 71 245 71s171-24 246-71 134-111 178-192 66-168 66-263c0-94-22-181-66-262s-103-145-178-192c-75-48-157-72-246-72z"/>
    <glyph unicode="Ö" horiz-adv-x="1540" d="M590 1518c60 0 106 46 106 106 0 29-10 55-31 76s-46 31-75 31c-31 0-56-10-77-31s-32-47-32-76c0-30 11-55 32-75 21-21 46-31 77-31m361 0c30 0 55 10 76 31 21 20 31 45 31 75 0 29-10 55-31 76s-47 31-76 31c-31 0-56-10-77-31s-31-46-31-76c0-61 47-106 108-106M770-26c125 0 240 33 346 98 105 65 189 154 251 265s93 232 93 363-31 253-93 364-146 199-251 264c-106 65-221 98-346 98s-240-33-345-98c-106-65-190-153-252-264S80 831 80 700s31-252 93-363S319 137 425 72C530 7 645-26 770-26m0 200c-89 0-170 24-245 71S390 356 346 437s-66 168-66 263c0 94 22 181 66 262s104 145 179 193c75 47 156 71 245 71s171-24 246-71 134-111 178-192 66-168 66-263c0-94-22-181-66-262s-103-145-178-192c-75-48-157-72-246-72z"/>
    <glyph unicode="Ò" horiz-adv-x="1540" d="M538 1788l178-288h102l-80 288M770-26c125 0 240 33 346 98 105 65 189 154 251 265s93 232 93 363-31 253-93 364-146 199-251 264c-106 65-221 98-346 98s-240-33-345-98c-106-65-190-153-252-264S80 831 80 700s31-252 93-363S319 137 425 72C530 7 645-26 770-26m0 200c-89 0-170 24-245 71S390 356 346 437s-66 168-66 263c0 94 22 181 66 262s104 145 179 193c75 47 156 71 245 71s171-24 246-71 134-111 178-192 66-168 66-263c0-94-22-181-66-262s-103-145-178-192c-75-48-157-72-246-72z"/>
    <glyph unicode="Ø" horiz-adv-x="1540" d="M253 3L427-97l75 132c87-41 176-61 268-61 125 0 240 33 346 98 105 65 189 154 251 265s93 232 93 363c0 110-22 214-67 311s-107 180-185 248l81 138-174 100-75-131c-85 40-175 60-270 60-125 0-240-33-345-98-106-65-190-153-252-264S80 831 80 700c0-109 23-212 68-309s107-180 185-248m106 183c-99 93-159 227-159 374 0 94 22 181 66 262s104 145 179 193c75 47 156 71 245 71 58 0 114-13 168-38M770 174c-58 0-113 13-165 39l498 862c99-93 157-228 157-375 0-94-22-181-66-262s-103-145-178-192c-75-48-157-72-246-72z"/>
    <glyph unicode="Õ" horiz-adv-x="1540" d="M932 1503c102 0 176 75 176 180 0 28-5 56-14 83l-124-40c5-14 7-28 7-41 0-29-11-50-38-50-20 0-49 16-114 55-95 57-154 89-205 89-106 0-175-76-175-176 0-28 5-56 14-83l123 34c-3 10-5 21-5 34 0 27 11 47 30 58 3 2 7 3 12 3 24 0 57-20 124-61 87-55 142-85 189-85M770-26c125 0 240 33 346 98 105 65 189 154 251 265s93 232 93 363-31 253-93 364-146 199-251 264c-106 65-221 98-346 98s-240-33-345-98c-106-65-190-153-252-264S80 831 80 700s31-252 93-363S319 137 425 72C530 7 645-26 770-26m0 200c-89 0-170 24-245 71S390 356 346 437s-66 168-66 263c0 94 22 181 66 262s104 145 179 193c75 47 156 71 245 71s171-24 246-71 134-111 178-192 66-168 66-263c0-94-22-181-66-262s-103-145-178-192c-75-48-157-72-246-72z"/>
    <glyph unicode="P" horiz-adv-x="1082" d="M120 1400V0h200v567h278c72 0 139 19 201 56s111 87 148 151c37 63 55 133 55 210 0 75-18 145-54 209-36 63-85 114-146 151-62 37-130 56-204 56M320 767v459h258c41 0 78-10 113-30 68-41 111-115 111-199 0-43-10-81-30-116-40-70-113-114-194-114z"/>
    <glyph unicode="Q" horiz-adv-x="1565" d="M1342-35l141 142-164 163c89 124 140 274 140 435 0 131-31 253-93 364s-146 199-251 264-220 98-345 98-240-33-345-98c-106-65-190-153-252-264S80 836 80 705s31-253 93-364S319 142 425 77c105-65 220-98 345-98 153 0 296 53 411 146m-411 54c-88 0-170 24-245 71S390 361 346 442c-44 80-66 168-66 263 0 93 22 180 66 261s104 145 179 193 156 72 245 72c88 0 170-24 245-71s134-111 178-192 66-168 66-263c0-104-31-203-88-286l-155 155-141-142 161-161c-73-59-170-92-266-92z"/>
    <glyph unicode="R" horiz-adv-x="1184" d="M133 1400V0h200v567h199L861 0h231L753 585c57 16 107 43 152 81 88 76 141 190 141 318 0 76-18 146-53 210-36 63-85 114-146 151-62 37-130 55-204 55M333 767v459h289c41 0 78-10 113-30 68-41 111-115 111-199 0-43-10-81-30-116-40-70-113-114-194-114z"/>
    <glyph unicode="S" horiz-adv-x="1237" d="M618-26c92 0 177 17 256 52s141 83 188 146 70 134 70 214c0 115-48 206-143 275-96 69-220 115-371 139-73 13-130 25-172 38-84 25-142 77-142 173 0 40 15 76 44 109 59 64 162 102 270 102 51 0 99-7 145-21 92-28 162-82 185-147l189 68c-23 62-60 116-113 161-106 91-255 140-406 140-91 0-176-17-255-52s-141-83-188-146-71-134-71-214c0-85 22-155 65-210 87-111 237-168 449-203 209-35 314-106 314-212 0-41-14-78-43-110-58-65-160-102-271-102-151 0-296 71-330 169l-188-70c22-61 59-114 112-159C316 23 465-26 618-26z"/>
    <glyph unicode="T" horiz-adv-x="1259" d="M1179 1400H80v-200h449V0h200v1200h450z"/>
    <glyph unicode="Þ" horiz-adv-x="1082" d="M120 1400V0h200v284h278c72 0 139 19 201 56s111 87 148 151c37 63 55 133 55 209 0 75-18 145-54 209-36 63-85 114-146 151-62 37-130 56-204 56H320v284m0-916v458h258c41 0 78-10 113-30 68-41 111-115 111-199 0-43-10-81-30-116-40-70-113-113-194-113z"/>
    <glyph unicode="U" horiz-adv-x="1346" d="M673-26c109 0 206 27 290 81 83 54 148 128 194 221s69 195 69 308v816h-200V584c0-76-14-145-41-207-55-125-164-203-312-203-73 0-136 18-189 55-107 73-164 204-164 355v816H120V584c0-113 23-215 69-308S300 109 384 55c83-54 180-81 289-81z"/>
    <glyph unicode="Ú" horiz-adv-x="1346" d="M620 1500h102l178 288H700M673-26c109 0 206 27 290 81 83 54 148 128 194 221s69 195 69 308v816h-200V584c0-76-14-145-41-207-55-125-164-203-312-203-73 0-136 18-189 55-107 73-164 204-164 355v816H120V584c0-113 23-215 69-308S300 109 384 55c83-54 180-81 289-81z"/>
    <glyph unicode="Û" horiz-adv-x="1346" d="M577 1734l-101-234h133l65 153 63-153h133l-100 234M673-26c109 0 206 27 290 81 83 54 148 128 194 221s69 195 69 308v816h-200V584c0-76-14-145-41-207-55-125-164-203-312-203-73 0-136 18-189 55-107 73-164 204-164 355v816H120V584c0-113 23-215 69-308S300 109 384 55c83-54 180-81 289-81z"/>
    <glyph unicode="Ü" horiz-adv-x="1346" d="M493 1518c60 0 106 46 106 106 0 29-10 55-31 76s-46 31-75 31c-31 0-56-10-77-31s-32-47-32-76c0-30 11-55 32-75 21-21 46-31 77-31m361 0c30 0 55 10 76 31 21 20 31 45 31 75 0 29-10 55-31 76s-47 31-76 31c-31 0-56-10-77-31s-31-46-31-76c0-61 47-106 108-106M673-26c109 0 206 27 290 81 83 54 148 128 194 221s69 195 69 308v816h-200V584c0-76-14-145-41-207-55-125-164-203-312-203-73 0-136 18-189 55-107 73-164 204-164 355v816H120V584c0-113 23-215 69-308S300 109 384 55c83-54 180-81 289-81z"/>
    <glyph unicode="Ù" horiz-adv-x="1346" d="M464 1788l178-288h102l-80 288m9-1814c109 0 206 27 290 81 83 54 148 128 194 221s69 195 69 308v816h-200V584c0-76-14-145-41-207-55-125-164-203-312-203-73 0-136 18-189 55-107 73-164 204-164 355v816H120V584c0-113 23-215 69-308S300 109 384 55c83-54 180-81 289-81z"/>
    <glyph unicode="V" horiz-adv-x="1308" d="M528 0h251l509 1400h-212L654 239 232 1400H20z"/>
    <glyph unicode="W" horiz-adv-x="1857" d="M458 0h230l240 944L1170 0h231l356 1400h-207L1285 358l-266 1042H838L573 358 307 1400H100z"/>
    <glyph unicode="Ẃ" horiz-adv-x="1857" d="M887 1500h102l178 288H967M458 0h230l240 944L1170 0h231l356 1400h-207L1285 358l-266 1042H838L573 358 307 1400H100z"/>
    <glyph unicode="Ŵ" horiz-adv-x="1857" d="M832 1734l-101-234h133l65 153 63-153h133l-100 234M458 0h230l240 944L1170 0h231l356 1400h-207L1285 358l-266 1042H838L573 358 307 1400H100z"/>
    <glyph unicode="Ẅ" horiz-adv-x="1857" d="M749 1518c60 0 106 46 106 106 0 29-10 55-31 76s-46 31-75 31c-31 0-56-10-77-31s-32-47-32-76c0-30 11-55 32-75 21-21 46-31 77-31m361 0c30 0 55 10 76 31 21 20 31 45 31 75 0 29-10 55-31 76s-47 31-76 31c-31 0-56-10-77-31s-31-46-31-76c0-61 47-106 108-106M458 0h230l240 944L1170 0h231l356 1400h-207L1285 358l-266 1042H838L573 358 307 1400H100z"/>
    <glyph unicode="Ẁ" horiz-adv-x="1857" d="M700 1788l178-288h102l-80 288M458 0h230l240 944L1170 0h231l356 1400h-207L1285 358l-266 1042H838L573 358 307 1400H100z"/>
    <glyph unicode="X" horiz-adv-x="1393" d="M60 0h249l387 533L1085 0h248L821 704l508 698h-247L696 873l-385 529H64l509-698z"/>
    <glyph unicode="Y" horiz-adv-x="1274" d="M978 1400L637 850l-341 550H60l477-767V0h200v633l477 767z"/>
    <glyph unicode="Ý" horiz-adv-x="1274" d="M588 1500h102l178 288H668m310-388L637 850l-341 550H60l477-767V0h200v633l477 767z"/>
    <glyph unicode="Ŷ" horiz-adv-x="1274" d="M543 1734l-101-234h133l65 153 63-153h133l-100 234m242-334L637 850l-341 550H60l477-767V0h200v633l477 767z"/>
    <glyph unicode="Ÿ" horiz-adv-x="1274" d="M456 1518c60 0 106 46 106 106 0 29-10 55-31 76s-46 31-75 31c-31 0-56-10-77-31s-32-47-32-76c0-30 11-55 32-75 21-21 46-31 77-31m361 0c30 0 55 10 76 31 21 20 31 45 31 75 0 29-10 55-31 76s-47 31-76 31c-31 0-56-10-77-31s-31-46-31-76c0-61 47-106 108-106m161-118L637 850l-341 550H60l477-767V0h200v633l477 767z"/>
    <glyph unicode="Ỳ" horiz-adv-x="1274" d="M413 1788l178-288h102l-80 288m365-388L637 850l-341 550H60l477-767V0h200v633l477 767z"/>
    <glyph unicode="Z" horiz-adv-x="1372" d="M120 0h1132v200H389l863 1000v200H120v-200h863L120 200z"/>
    <glyph unicode="a" horiz-adv-x="1234" d="M1114 1000H914V850c-69 111-179 178-318 178-95 0-183-24-263-71-81-47-145-111-192-192S70 596 70 500c0-95 24-183 71-263 47-81 111-145 192-192 80-47 168-71 263-71 139 0 249 69 318 178V0h200M598 167c-57 0-111 15-160 45-100 59-163 167-163 288 0 61 15 117 44 168 58 102 162 166 279 166 58 0 110-15 156-44 91-60 143-166 143-290 0-61-12-116-37-167-50-101-145-166-262-166z"/>
    <glyph unicode="á" horiz-adv-x="1234" d="M533 1138h102l178 288H613m501-426H914V850c-69 111-179 178-318 178-95 0-183-24-263-71-81-47-145-111-192-192S70 596 70 500c0-95 24-183 71-263 47-81 111-145 192-192 80-47 168-71 263-71 139 0 249 69 318 178V0h200M598 167c-57 0-111 15-160 45-100 59-163 167-163 288 0 61 15 117 44 168 58 102 162 166 279 166 58 0 110-15 156-44 91-60 143-166 143-290 0-61-12-116-37-167-50-101-145-166-262-166z"/>
    <glyph unicode="â" horiz-adv-x="1234" d="M495 1400l-101-234h133l65 153 63-153h133l-100 234m426-400H914V850c-69 111-179 178-318 178-95 0-183-24-263-71-81-47-145-111-192-192S70 596 70 500c0-95 24-183 71-263 47-81 111-145 192-192 80-47 168-71 263-71 139 0 249 69 318 178V0h200M598 167c-57 0-111 15-160 45-100 59-163 167-163 288 0 61 15 117 44 168 58 102 162 166 279 166 58 0 110-15 156-44 91-60 143-166 143-290 0-61-12-116-37-167-50-101-145-166-262-166z"/>
    <glyph unicode="´" horiz-adv-x="1080" d="M480 1138h102l178 288H560z"/>
    <glyph unicode="́" horiz-adv-x="0" d="M-600 1138h102l178 288h-200z"/>
    <glyph unicode="ä" horiz-adv-x="1234" d="M412 1168c60 0 106 46 106 106 0 29-10 55-31 76s-46 31-75 31c-31 0-56-10-77-31s-32-47-32-76c0-30 11-55 32-75 21-21 46-31 77-31m361 0c30 0 55 10 76 31 21 20 31 45 31 75 0 29-10 55-31 76s-47 31-76 31c-31 0-56-10-77-31s-31-46-31-76c0-61 47-106 108-106m341-168H914V850c-69 111-179 178-318 178-95 0-183-24-263-71-81-47-145-111-192-192S70 596 70 500c0-95 24-183 71-263 47-81 111-145 192-192 80-47 168-71 263-71 139 0 249 69 318 178V0h200M598 167c-57 0-111 15-160 45-100 59-163 167-163 288 0 61 15 117 44 168 58 102 162 166 279 166 58 0 110-15 156-44 91-60 143-166 143-290 0-61-12-116-37-167-50-101-145-166-262-166z"/>
    <glyph unicode="æ" horiz-adv-x="1855" d="M606-15c144 0 252 70 313 193 89-120 225-193 377-193 197 0 372 124 452 302l-204 48c-55-95-144-150-248-150-148 0-262 110-286 256h779c2 21 3 42 3 62 0 98-22 188-65 270s-103 147-178 195c-76 47-160 71-253 71-78 0-150-18-217-55s-121-88-164-151c-68 132-183 206-372 206-96 0-178-13-245-38-68-26-122-73-162-142l172-101c39 65 118 97 235 97 60 0 108-11 144-32 71-44 98-117 110-228H386c-172 0-306-90-310-262C78 110 243-15 486-15m517 610c7 50 25 95 53 136 55 81 141 131 240 131 48 0 93-12 136-36 84-48 142-134 155-231M537 115c-80 0-144 16-193 49-49 32-73 82-74 149 3 100 77 128 217 128h305v-80c0-33-8-69-23-106-15-38-42-71-80-98-38-28-89-42-152-42z"/>
    <glyph unicode="à" horiz-adv-x="1234" d="M346 1426l178-288h102l-80 288m568-426H914V850c-69 111-179 178-318 178-95 0-183-24-263-71-81-47-145-111-192-192S70 596 70 500c0-95 24-183 71-263 47-81 111-145 192-192 80-47 168-71 263-71 139 0 249 69 318 178V0h200M598 167c-57 0-111 15-160 45-100 59-163 167-163 288 0 61 15 117 44 168 58 102 162 166 279 166 58 0 110-15 156-44 91-60 143-166 143-290 0-61-12-116-37-167-50-101-145-166-262-166z"/>
    <glyph unicode="&amp;" horiz-adv-x="1425" d="M500-26c57 0 105 7 144 22 38 15 77 39 118 74s104 95 190 181L1204 0l141 141-253 252 99 99v282L952 536 642 846c45 45 79 81 100 108 43 53 62 103 62 179 0 56-14 107-41 154-55 93-154 151-263 151-54 0-104-13-150-40-93-54-153-152-153-265 0-37 5-69 14-96s25-54 47-81c21-27 55-64 101-110-86-86-146-149-181-189s-60-79-75-118-23-87-23-144c0-74 18-143 55-207 36-65 86-116 151-155 64-40 135-59 214-59m0 986c-14 14-24 25-31 32l-11 10c-25 25-43 43-53 55-21 23-31 44-31 80 0 66 57 126 126 126 65 0 127-53 127-126 0-18-2-33-7-45s-12-24-23-36-31-31-58-58m-39-824c-118 0-219 96-219 219 0 31 4 58 13 79 8 21 22 42 41 64s54 58 103 107l62 62 311-311-61-62c-47-49-82-83-104-102-45-40-83-56-146-56z"/>
    <glyph unicode="≈" horiz-adv-x="1271" d="M894 698c49 0 94 12 133 36 79 47 124 133 124 230 0 20-2 40-6 60l-196-3c1-6 2-15 2-26 0-64-42-113-106-113-31 0-65 8-101 23s-83 39-141 71c-63 34-116 60-158 78-42 17-82 26-121 26-51 0-99-13-142-38C94 990 40 898 40 801c0-15 2-31 5-50l196 1c-1 12-2 20-2 25 0 64 40 114 100 114h3c29 0 61-7 98-21 36-15 86-37 149-67 71-35 129-61 175-78 46-18 89-27 130-27m0-548c49 0 94 12 133 36 79 47 124 133 124 230 0 20-2 40-6 60l-196-3c1-6 2-15 2-26 0-64-42-113-106-113-31 0-65 8-101 23s-83 39-141 71c-63 34-116 60-158 78-42 17-82 26-121 26-51 0-99-13-142-38C94 442 40 350 40 253c0-15 2-31 5-50l196 1c-1 12-2 20-2 25 0 64 40 114 100 114h3c29 0 61-7 98-21 36-15 86-37 149-67 71-35 129-61 175-78 46-18 89-27 130-27z"/>
    <glyph unicode="å" horiz-adv-x="1234" d="M593 1107c95 0 174 79 174 176 0 93-79 173-174 173s-174-80-174-173c0-95 79-176 174-176m0 84c-51 0-90 40-90 92 0 24 9 45 27 62 17 17 38 26 63 26s46-9 64-26c17-17 26-38 26-62 0-52-39-92-90-92m521-191H914V850c-69 111-179 178-318 178-95 0-183-24-263-71-81-47-145-111-192-192S70 596 70 500c0-95 24-183 71-263 47-81 111-145 192-192 80-47 168-71 263-71 139 0 249 69 318 178V0h200M598 167c-57 0-111 15-160 45-100 59-163 167-163 288 0 61 15 117 44 168 58 102 162 166 279 166 58 0 110-15 156-44 91-60 143-166 143-290 0-61-12-116-37-167-50-101-145-166-262-166z"/>
    <glyph unicode="↔" horiz-adv-x="1776" d="M596 234l141 141-275 275h849l-274-275 142-141 517 516-517 516-142-141 274-275H462l275 275-141 141L80 750z"/>
    <glyph unicode="↓" horiz-adv-x="1192" d="M595 134l517 517-141 141-276-274v848H495V518L221 792 80 651z"/>
    <glyph unicode="←" horiz-adv-x="1391" d="M596 234l141 141-275 275h849v200H462l275 275-141 141L80 750z"/>
    <glyph unicode="→" horiz-adv-x="1392" d="M795 234l517 516-517 516-141-141 274-275H80V650h848L654 375z"/>
    <glyph unicode="↑" horiz-adv-x="1193" d="M497 134h200v849l275-275 141 142-516 517L80 850l142-142 275 275z"/>
    <glyph unicode="↕" horiz-adv-x="1193" d="M596-58l517 517-142 142-275-276v850l275-275 142 142-517 516-516-516 141-142 275 275V325L221 601 80 459z"/>
    <glyph unicode="^" horiz-adv-x="885" d="M80 1000h213l150 412 149-412h213l-236 650H316z"/>
    <glyph unicode="~" horiz-adv-x="1271" d="M934 409c49 0 94 12 133 36 79 47 124 133 124 230 0 20-2 40-6 60l-196-3c1-6 2-15 2-26 0-64-42-113-106-113-31 0-65 8-101 23s-83 39-141 71c-63 34-116 60-158 78-42 17-82 26-121 26-51 0-99-13-142-38-88-52-142-144-142-241 0-15 2-31 5-50l196 1c-1 12-2 20-2 25 0 64 40 114 100 114h3c29 0 61-7 98-21 36-15 86-37 149-67 71-35 129-61 175-78 46-18 89-27 130-27z"/>
    <glyph unicode="*" horiz-adv-x="716" d="M232 843l111 152 109-152 116 84-112 151 180 58-44 135-178-58v187H272v-187l-179 58-43-135 178-58-111-151z"/>
    <glyph unicode="@" horiz-adv-x="1790" d="M895-24C782-24 679 0 585 49S417 166 362 253s-82 186-82 297c0 112 28 215 83 310 55 94 130 169 225 224 94 55 196 82 307 82s213-27 308-82c94-55 169-130 224-224 55-95 83-198 83-310 0-43-5-87-16-132s-27-83-49-114-49-46-81-46c-55 0-98 40-98 96v544l-153 29v-77c-25 30-60 54-105 72-45 17-91 26-138 26-72 0-138-18-199-53-61-36-109-84-144-145-36-61-54-128-54-200s18-138 54-199c35-61 83-110 144-145 61-36 127-54 199-54 97 0 178 40 233 107 5-36 22-69 50-100 56-62 143-101 223-101 68 0 127 24 178 71s89 109 116 185c27 75 40 154 40 236 0 147-36 284-109 409s-171 224-296 297-261 110-410 110c-147 0-283-36-408-109s-224-172-297-297S80 698 80 550c0-147 36-279 109-397S360-57 485-124s261-100 410-100m-10 529c-44 0-85 11-122 33-75 44-123 123-123 212 0 45 11 86 33 124 44 75 123 121 212 121 137 0 227-109 227-237 0-43-10-84-29-123-39-78-111-130-198-130z"/>
    <glyph unicode="ã" horiz-adv-x="1234" d="M756 1211c102 0 176 75 176 180 0 28-5 56-14 83l-124-40c5-14 7-28 7-41 0-29-11-50-38-50-20 0-49 16-114 55-95 57-154 89-205 89-106 0-175-76-175-176 0-28 5-56 14-83l123 34c-3 10-5 21-5 34 0 27 11 47 30 58 3 2 7 3 12 3 24 0 57-20 124-61 87-55 142-85 189-85m358-211H914V850c-69 111-179 178-318 178-95 0-183-24-263-71-81-47-145-111-192-192S70 596 70 500c0-95 24-183 71-263 47-81 111-145 192-192 80-47 168-71 263-71 139 0 249 69 318 178V0h200M598 167c-57 0-111 15-160 45-100 59-163 167-163 288 0 61 15 117 44 168 58 102 162 166 279 166 58 0 110-15 156-44 91-60 143-166 143-290 0-61-12-116-37-167-50-101-145-166-262-166z"/>
    <glyph unicode="b" horiz-adv-x="1224" d="M637 1028c-139 0-248-67-317-178v650H120V0h200v152C389 43 500-26 637-26c95 0 183 24 264 71s145 111 192 192 71 169 71 264-24 183-71 264-111 145-192 192-169 71-264 71m-2-860c-58 0-109 15-154 45-90 59-144 165-144 288 0 61 13 117 38 168 50 102 144 166 260 166 58 0 112-15 162-44 49-30 89-71 119-122 29-51 44-107 44-168 0-60-14-115-43-166s-69-92-119-122-104-45-163-45z"/>
    <glyph unicode="\" horiz-adv-x="765" d="M485-112h200L280 1400H80z"/>
    <glyph unicode="|" horiz-adv-x="480" d="M140 1400V-302h200v1702z"/>
    <glyph unicode="{" horiz-adv-x="813" d="M713-113V87h-93c-83 0-150 67-150 150v253c-1 22-6 40-15 53s-23 29-43 49c-21 20-37 37-48 51 7 10 22 26 44 48 40 37 59 62 62 106v253c0 83 69 150 150 150h93v200h-93c-63 0-122-16-175-47-108-64-175-176-175-303V804c-1-31-24-47-72-74-52-31-78-48-78-87s24-56 76-84c48-25 73-42 74-77V237c0-63 16-122 47-175 62-107 177-175 303-175z"/>
    <glyph unicode="}" horiz-adv-x="813" d="M100 87v-200h94c63 0 122 16 176 47C476-4 544 111 544 237v245c1 35 24 51 73 78 51 27 76 44 76 83s-27 58-78 86c-47 27-70 44-71 75v246c0 63-16 122-47 175s-74 96-127 128c-54 31-113 47-176 47h-94v-200h94c81 0 150-67 150-150V797c3-45 21-67 62-107 23-22 37-38 44-47-9-11-24-28-47-51-39-36-56-58-59-102V237c0-83-67-150-150-150z"/>
    <glyph unicode="[" horiz-adv-x="598" d="M498 88H320v1112h178v200H120V-112h378z"/>
    <glyph unicode="]" horiz-adv-x="599" d="M100-112h379v1512H100v-200h179V88H100z"/>
    <glyph unicode="˘" horiz-adv-x="1144" d="M572 1128c59 0 115 15 166 44 102 59 166 167 166 288H774c0-37-9-70-27-101-36-62-102-101-175-101-107 0-202 90-202 202H240c0-59 15-114 45-165s71-92 122-122 106-45 165-45z"/>
    <glyph unicode="¦" horiz-adv-x="440" d="M120 1400V650h200v750M120 448v-750h200v750z"/>
    <glyph unicode="•" horiz-adv-x="443" d="M221 458c78 0 142 64 142 143 0 77-64 141-142 141S80 678 80 601c0-79 62-143 141-143z"/>
    <glyph unicode="c" horiz-adv-x="1019" d="M780 280c-55-64-136-106-220-106-55 0-105 15-151 45-92 59-149 165-149 281 0 58 13 112 40 163 52 100 149 165 260 165 81 0 164-39 220-107l179 97c-46 65-104 117-174 154s-145 56-225 56c-91 0-174-24-250-71-77-47-137-111-182-192S60 596 60 500c0-95 23-183 68-263 45-81 105-145 182-192 76-47 159-71 250-71 80 0 155 19 225 56 69 37 127 88 174 153z"/>
    <glyph unicode="ć" horiz-adv-x="1019" d="M502 1138h102l178 288H582M780 280c-55-64-136-106-220-106-55 0-105 15-151 45-92 59-149 165-149 281 0 58 13 112 40 163 52 100 149 165 260 165 81 0 164-39 220-107l179 97c-46 65-104 117-174 154s-145 56-225 56c-91 0-174-24-250-71-77-47-137-111-182-192S60 596 60 500c0-95 23-183 68-263 45-81 105-145 182-192 76-47 159-71 250-71 80 0 155 19 225 56 69 37 127 88 174 153z"/>
    <glyph unicode="ˇ" horiz-adv-x="634" d="M221 1166h193l100 234H381l-63-153-65 153H120z"/>
    <glyph unicode="ç" horiz-adv-x="1019" d="M780 280c-55-64-136-106-220-106-55 0-105 15-151 45-92 59-149 165-149 281 0 58 13 112 40 163 52 100 149 165 260 165 81 0 164-39 220-107l179 97c-46 65-104 117-174 154s-145 56-225 56c-91 0-174-24-250-71-77-47-137-111-182-192S60 596 60 500c0-95 23-183 68-263 45-81 106-145 182-192 55-34 113-56 174-65v-167h93c48 0 73-11 73-47s-25-48-73-48H398v-123h213c56 0 103 14 142 43s58 71 58 125c0 53-19 94-56 122-38 28-84 42-139 42v50c59 7 116 24 169 53 70 37 128 88 174 153z"/>
    <glyph unicode="¸" horiz-adv-x="1253" d="M400-154v-152h85c67 0 128 16 185 49C782-191 853-71 853 61v85H701V59c0-36-10-71-30-104-40-66-111-109-184-109z"/>
    <glyph unicode="¢" horiz-adv-x="1092" d="M510 0h141v205c150 19 283 108 361 235L839 540c-27-43-64-77-111-103-25-14-51-24-77-31v590c26-6 52-16 77-30 47-25 84-60 111-104l173 100c-78 127-211 216-361 235v203H510v-203c-80-11-153-40-218-87-66-47-118-106-155-177-38-71-57-148-57-231s19-160 57-231c37-72 89-131 155-178 65-47 138-77 218-88m0 202c-27 7-52 17-77 32-92 55-153 152-153 263 0 109 60 206 152 261 25 15 51 25 78 32z"/>
    <glyph unicode="ˆ" horiz-adv-x="1194" d="M501 1400l-101-234h133l65 153 63-153h133l-100 234z"/>
    <glyph unicode=":" horiz-adv-x="413" d="M186 788c30 0 55 10 76 31 21 20 31 45 31 75 0 29-10 54-31 75s-47 31-76 31-54-10-75-31-31-46-31-75c0-30 10-55 31-75 21-21 46-31 75-31m0-814c29 0 55 10 76 31s31 46 31 76c0 29-10 54-31 75s-47 31-76 31-54-10-75-31-31-46-31-75c0-30 10-55 31-76s46-31 75-31z"/>
    <glyph unicode="," horiz-adv-x="462" d="M80-112h133l129 338H142z"/>
    <glyph unicode="©" horiz-adv-x="1863" d="M931-276c154 0 296 38 427 114 131 77 234 180 311 311 76 130 114 272 114 426 0 155-38 297-114 428-77 130-180 233-311 309s-273 114-427 114c-155 0-297-38-427-114-130-77-233-180-309-310C118 872 80 730 80 575c0-154 38-296 115-426C271 18 374-85 504-162c130-76 272-114 427-114m0 200c-116 0-224 29-323 87-100 57-180 136-239 235s-89 209-89 329c0 117 29 225 87 324s137 179 236 238 209 88 328 89h4c116 0 223-29 323-87 99-58 178-137 237-237s88-209 88-327c0-116-29-224-86-323-58-100-137-180-236-239-100-59-210-89-330-89m225 431c-56-65-136-106-220-106-55 0-105 15-151 45-92 59-149 165-149 281 0 58 13 112 40 163 52 100 149 165 260 165 81 0 164-39 220-107l179 97c-46 65-104 117-174 154s-145 56-225 56c-91 0-174-24-250-71-77-47-137-111-182-192s-68-169-68-265c0-95 23-183 68-263 45-81 105-145 182-192 76-47 159-71 250-71 80 0 155 19 225 56 69 37 127 88 174 153z"/>
    <glyph unicode="¤" horiz-adv-x="1008" d="M80 376l100-101 126 127c60-41 131-63 200-63 72 0 138 20 199 61l124-125 99 101-123 124c40 59 61 129 61 198 0 74-21 141-63 201l125 126-99 100-128-127c-57 39-122 58-195 58s-139-20-197-60l-129 129-100-100 129-129c-40-59-62-129-62-198s20-137 60-194m299-24c-39 0-75 10-108 29-67 39-109 110-109 190 0 38 10 74 29 107 38 67 108 109 188 109 119 0 218-94 218-216 0-119-101-219-218-219z"/>
    <glyph unicode="d" horiz-adv-x="1225" d="M1104 1500H904V850c-68 111-178 177-318 177-95 0-183-24-263-71-81-47-145-111-192-192S60 595 60 500s24-183 71-263c47-81 111-145 192-192 80-47 168-71 263-71 140 0 250 66 318 177V0h200M588 167c-57 0-111 15-160 45-100 59-163 167-163 288 0 61 15 117 44 168s68 91 118 121c49 30 103 45 161 45s110-15 156-44c91-60 143-166 143-290 0-61-12-117-37-168-50-101-145-165-262-165z"/>
    <glyph unicode="†" horiz-adv-x="829" d="M80 1058h235V577h200v481h234v200H515v242H315v-242H80z"/>
    <glyph unicode="‡" horiz-adv-x="829" d="M80 752h235V560h200v192h234v198H515v167h234v200H515v183H315v-183H80v-200h235V950H80z"/>
    <glyph unicode="°" horiz-adv-x="825" d="M413 748c59 0 115 15 166 44 102 58 166 165 166 288 0 59-15 114-44 165-59 102-165 167-288 167-61 0-116-15-167-45-102-60-166-169-166-287 0-59 15-113 45-164 58-102 168-168 288-168m0 200c-72 0-133 59-133 132s61 132 133 132c73 0 132-59 132-132s-59-132-132-132z"/>
    <glyph unicode="¨" horiz-adv-x="1377" d="M509 1168c60 0 106 46 106 106 0 29-10 55-31 76s-46 31-75 31c-31 0-56-10-77-31s-32-47-32-76c0-30 11-55 32-75 21-21 46-31 77-31m361 0c30 0 55 10 76 31 21 20 31 45 31 75 0 29-10 55-31 76s-47 31-76 31c-31 0-56-10-77-31s-31-46-31-76c0-61 47-106 108-106z"/>
    <glyph unicode="÷" horiz-adv-x="1160" d="M580 1083c-68 0-121-58-121-122 0-33 12-62 35-85 23-24 52-36 86-36 64 0 120 56 120 121 0 64-56 122-120 122M80 500h1000v200H80m500-341c-34 0-63-12-86-36s-35-52-35-85 12-62 35-85 52-35 86-35c64 0 122 54 122 120 0 65-58 121-122 121z"/>
    <glyph unicode="$" horiz-adv-x="1197" d="M528 1418c-82-9-157-31-224-67-135-72-220-193-220-340 0-169 94-277 243-340 58-24 125-44 201-60V179c-25 4-50 10-75 17-92 29-162 82-185 147L80 273c19-55 51-103 96-145C265 44 392-8 528-21v-203h142v203c81 9 156 31 223 67 135 72 219 193 219 340v2c0 114-48 205-143 273-80 57-180 99-299 125v431c25-3 49-9 73-16 92-28 162-82 185-147l189 68c-21 55-53 104-98 147-90 84-216 136-349 149v206H528m0-811c-41 8-75 16-102 25-84 25-142 77-142 173 0 80 65 148 161 184 27 10 54 17 83 22m142-634c161-39 242-104 242-197 0-83-63-149-159-185-27-10-54-17-83-22z"/>
    <glyph unicode="˙" horiz-adv-x="1014" d="M508 1168c60 0 106 46 106 106 0 30-10 55-31 76-21 20-46 30-75 30-31 0-56-10-77-30-21-21-31-46-31-76 0-61 47-106 108-106z"/>
    <glyph unicode="ı" horiz-adv-x="440" d="M120 1000V0h200v1000z"/>
    <glyph unicode="e" horiz-adv-x="1119" d="M560-26c65 0 128 13 187 38 118 51 211 145 266 264l-204 47c-56-95-144-149-245-149h-4c-49 0-93 11-134 34-81 44-135 125-152 222h780c2 21 3 42 3 62 0 98-22 188-65 270-43 81-103 146-178 194-76 48-161 72-254 72-91 0-174-24-250-71-77-47-137-111-182-192S60 596 60 501s23-183 68-264S233 92 310 45c76-47 159-71 250-71M268 583c22 148 147 268 292 268 49 0 94-12 136-36 84-48 143-135 156-232z"/>
    <glyph unicode="é" horiz-adv-x="1119" d="M480 1138h102l178 288H560m0-1452c65 0 128 13 187 38 118 51 211 145 266 264l-204 47c-56-95-144-149-245-149h-4c-49 0-93 11-134 34-81 44-135 125-152 222h780c2 21 3 42 3 62 0 98-22 188-65 270-43 81-103 146-178 194-76 48-161 72-254 72-91 0-174-24-250-71-77-47-137-111-182-192S60 596 60 501s23-183 68-264S233 92 310 45c76-47 159-71 250-71M268 583c22 148 147 268 292 268 49 0 94-12 136-36 84-48 143-135 156-232z"/>
    <glyph unicode="ê" horiz-adv-x="1119" d="M463 1400l-101-234h133l65 153 63-153h133l-100 234M560-26c65 0 128 13 187 38 118 51 211 145 266 264l-204 47c-56-95-144-149-245-149h-4c-49 0-93 11-134 34-81 44-135 125-152 222h780c2 21 3 42 3 62 0 98-22 188-65 270-43 81-103 146-178 194-76 48-161 72-254 72-91 0-174-24-250-71-77-47-137-111-182-192S60 596 60 501s23-183 68-264S233 92 310 45c76-47 159-71 250-71M268 583c22 148 147 268 292 268 49 0 94-12 136-36 84-48 143-135 156-232z"/>
    <glyph unicode="ë" horiz-adv-x="1119" d="M380 1168c60 0 106 46 106 106 0 29-10 55-31 76s-46 31-75 31c-31 0-56-10-77-31s-32-47-32-76c0-30 11-55 32-75 21-21 46-31 77-31m361 0c30 0 55 10 76 31 21 20 31 45 31 75 0 29-10 55-31 76s-47 31-76 31c-31 0-56-10-77-31s-31-46-31-76c0-61 47-106 108-106M560-26c65 0 128 13 187 38 118 51 211 145 266 264l-204 47c-56-95-144-149-245-149h-4c-49 0-93 11-134 34-81 44-135 125-152 222h780c2 21 3 42 3 62 0 98-22 188-65 270-43 81-103 146-178 194-76 48-161 72-254 72-91 0-174-24-250-71-77-47-137-111-182-192S60 596 60 501s23-183 68-264S233 92 310 45c76-47 159-71 250-71M268 583c22 148 147 268 292 268 49 0 94-12 136-36 84-48 143-135 156-232z"/>
    <glyph unicode="è" horiz-adv-x="1119" d="M317 1426l178-288h102l-80 288M560-26c65 0 128 13 187 38 118 51 211 145 266 264l-204 47c-56-95-144-149-245-149h-4c-49 0-93 11-134 34-81 44-135 125-152 222h780c2 21 3 42 3 62 0 98-22 188-65 270-43 81-103 146-178 194-76 48-161 72-254 72-91 0-174-24-250-71-77-47-137-111-182-192S60 596 60 501s23-183 68-264S233 92 310 45c76-47 159-71 250-71M268 583c22 148 147 268 292 268 49 0 94-12 136-36 84-48 143-135 156-232z"/>
    <glyph unicode="8" horiz-adv-x="1074" d="M537-26c83 0 159 19 229 58 70 38 126 90 167 156 41 65 61 137 61 215 0 68-17 131-50 190-34 59-80 107-138 144 95 68 155 176 155 292 0 72-19 138-57 199-39 61-90 109-155 145-65 35-135 53-212 53s-147-18-212-53c-65-36-117-84-155-145-39-61-58-127-58-199 0-116 60-224 155-292-57-37-103-85-136-144-34-59-51-123-51-190 0-78 20-150 61-215 41-66 96-118 166-156 70-39 147-58 230-58m0 857c-39 0-74 9-107 27-65 35-106 99-106 171 0 36 10 69 29 99 38 60 107 98 184 98 117 0 212-89 212-197 0-107-97-198-212-198m0-657c-44 0-85 10-123 31-76 40-123 115-123 198 0 41 11 80 33 115 44 70 125 113 213 113 45 0 86-10 123-30 75-41 122-115 122-198 0-41-11-80-33-115-44-71-123-114-212-114z"/>
    <glyph unicode="…" horiz-adv-x="1159" d="M186-26c29 0 55 10 76 31s31 46 31 76c0 29-10 54-31 75s-47 31-76 31-54-10-75-31-31-46-31-75c0-30 10-55 31-76s46-31 75-31m373 0c29 0 55 10 76 31s31 46 31 76c0 29-10 54-31 75s-47 31-76 31-54-10-75-31-31-46-31-75c0-30 10-55 31-76s46-31 75-31m374 0c29 0 55 10 76 31s31 46 31 76c0 29-10 54-31 75s-47 31-76 31-54-10-75-31-31-46-31-75c0-30 10-55 31-76s46-31 75-31z"/>
    <glyph unicode="—" horiz-adv-x="2040" d="M120 700V500h1800v200z"/>
    <glyph unicode="∅" horiz-adv-x="1160" d="M205 16l143-83 46 81c61-27 123-40 186-40 91 0 174 24 251 71 76 47 137 111 182 192 45 80 67 168 67 263 0 157-66 301-174 400l50 87-143 83-48-81c-57 26-119 39-185 39-91 0-174-24-250-71-77-47-137-111-182-192S80 596 80 500c0-155 67-298 175-397m99 170c-55 55-88 130-88 217 0 64 15 123 45 177s70 97 119 129c49 31 102 47 157 47 31 0 60-5 87-14m133-99c53-56 87-135 87-219 0-64-14-123-43-176-58-108-162-175-275-175-32 0-62 5-90 14z"/>
    <glyph unicode="–" horiz-adv-x="1240" d="M120 700V500h1000v200z"/>
    <glyph unicode="=" horiz-adv-x="1160" d="M80 710h1000v200H80m0-619h1000v200H80z"/>
    <glyph unicode="ð" horiz-adv-x="1125" d="M872 1471l-99 100-136-133c-90 51-187 76-290 76l1-200c50 0 96-8 139-23l-153-150 101-101 178 176c92-81 156-203 193-336-53 63-135 99-223 99-91 0-174-22-251-67S193 806 148 729 80 567 80 476s23-174 68-251S255 87 332 42c77-46 160-68 251-68 97 0 183 23 260 69 76 46 135 110 178 193 43 82 64 175 64 280 0 113-13 223-40 329-53 211-155 390-291 510M583 174c-55 0-105 14-152 41-93 55-151 153-151 261 0 54 14 104 41 151 54 93 151 152 262 152 55 0 105-14 152-41 93-55 151-153 151-262 0-53-13-103-40-149-54-93-152-153-263-153z"/>
    <glyph unicode="!" horiz-adv-x="411" d="M101 420h171v980H101M187-26c29 0 54 10 74 31s30 46 30 77c0 29-10 54-30 75-21 20-45 30-74 30-30 0-55-10-76-30-21-21-31-46-31-75 0-31 10-56 31-77s46-31 76-31z"/>
    <glyph unicode="¡" horiz-adv-x="395" d="M185 1026c-29 0-54-10-74-31-21-21-31-46-31-77 0-29 10-53 31-73 20-21 45-31 74-31 30 0 55 10 76 30 20 20 30 45 30 74 0 31-10 56-30 77-21 21-46 31-76 31m86-446H100v-980h171z"/>
    <glyph unicode="f" horiz-adv-x="703" d="M371 971v260c0 52 42 93 94 93 28 0 57-13 73-37l143 141c-57 63-136 96-216 96-53 0-102-13-147-39-90-53-147-147-147-254V971H50V771h121V0h200v771h284v200z"/>
    <glyph unicode="5" horiz-adv-x="1131" d="M541-26c85 0 164 21 236 64 72 42 129 99 171 171s63 150 63 235c0 88-20 168-61 239s-99 127-172 169c-73 41-157 63-250 64l-146 2 37 282h552v200H227l-91-682h371c200 0 304-121 304-274 0-49-12-94-36-135-49-83-137-135-234-135-49 0-95 12-136 37-83 48-135 136-135 233H70c0-84 21-162 63-234 41-72 98-129 171-172 72-43 151-64 237-64z"/>
    <glyph unicode="⅝" horiz-adv-x="1249" d="M373 798c129 0 232 92 232 219 0 139-103 228-257 228-12 0-21 0-27-1l5 91h228v114H210l-32-349c68 15 130 20 171 20 8 0 16-1 24-1 29-1 53-12 74-31 20-20 30-44 30-71 0-28-10-51-30-70-21-19-45-28-74-28-57 0-103 42-103 98H142c0-42 10-80 31-113 41-67 116-106 200-106M120 0h170l808 1400H928M915-31c119 0 214 90 214 205 0 60-25 116-66 153 32 35 52 82 52 130 0 111-91 195-200 195s-198-84-198-195c0-48 20-95 52-130-41-37-66-93-66-153 0-115 95-205 212-205m0 418c-37 0-70 33-70 70 0 39 31 67 70 67 41 0 72-27 72-67 0-37-32-70-72-70m0-292c-47 0-84 34-84 79 0 47 37 85 84 85 48 0 86-38 86-85 0-45-38-79-86-79z"/>
    <glyph unicode="4" horiz-adv-x="1130" d="M100 402h600V0h200v402h130v200H900v798H700V602l-400 1v797H100z"/>
    <glyph unicode="⁄" horiz-adv-x="978" d="M0 0h170l808 1400H808z"/>
    <glyph unicode="g" horiz-adv-x="1205" d="M1085 1000H885V853c-68 108-177 174-310 174-93 0-179-24-258-71S176 845 130 764c-47-81-70-169-70-264s23-183 70-263c46-81 108-145 187-192s165-71 258-71c133 0 242 66 310 174V-27c0-51-15-98-46-139s-71-74-121-98c-51-23-104-35-159-35-43 0-84 9-125 28-82 38-147 109-172 192L78-162c23-63 60-121 109-172 99-103 235-166 372-166 91 0 178 20 259 61s145 98 194 170c49 73 73 153 73 242M578 167c-57 0-109 15-157 45-96 59-156 167-156 288 0 61 14 117 42 168 56 102 156 166 271 166 57 0 107-15 152-45 89-60 142-168 142-289 0-60-12-115-37-166-50-102-144-167-257-167z"/>
    <glyph unicode="ß" horiz-adv-x="1113" d="M120 0h200v968c0 47 12 90 35 129 46 79 129 128 222 128 37 0 71-10 102-29 63-39 103-110 103-187 0-117-92-208-205-216l-26-2V625l87-3c43-1 82-11 118-31 72-41 117-113 117-193 0-41-10-78-31-112-42-69-119-113-204-113h-87L583 0h74c71 0 137 17 198 51s109 80 145 139c35 59 53 124 53 195 0 51-7 101-22 148-29 95-96 170-200 190 49 25 87 65 113 118 25 53 38 109 38 168 0 73-17 139-51 198s-80 106-139 141c-59 34-123 51-194 51-87 0-167-21-240-64s-131-101-174-174-64-153-64-239z"/>
    <glyph unicode="`" horiz-adv-x="1080" d="M320 1426l178-288h102l-80 288z"/>
    <glyph unicode="̀" horiz-adv-x="0" d="M-760 1426l178-288h102l-80 288z"/>
    <glyph unicode="&gt;" horiz-adv-x="1160" d="M80 156l1000 277v332L80 1044V835l853-235L80 364z"/>
    <glyph unicode="≥" horiz-adv-x="1160" d="M80 350l1000 277v332L80 1238v-208l853-236L80 558M80 0h1000v200H80z"/>
    <glyph unicode="«" horiz-adv-x="1110" d="M420 261h208L330 601l298 338H420L120 601m682-340h208L712 601l298 338H802L502 601z"/>
    <glyph unicode="»" horiz-adv-x="1130" d="M482 261h208l300 340-300 338H482l299-338M100 261h208l300 340-300 338H100l299-338z"/>
    <glyph unicode="‹" horiz-adv-x="728" d="M420 261h208L330 601l298 338H420L120 601z"/>
    <glyph unicode="›" horiz-adv-x="728" d="M100 261h208l300 340-300 338H100l299-338z"/>
    <glyph unicode="h" horiz-adv-x="1120" d="M1040 0v525c-1 91-21 175-58 252-38 77-91 138-158 183s-144 67-231 67c-127 0-217-43-273-148v621H120V0h201v521c0 58 10 111 31 159 40 95 119 154 222 154 48 0 92-14 133-42 81-56 133-158 133-271V0z"/>
    <glyph unicode="˝" horiz-adv-x="840" d="M440 1138h102l178 288H520m-400-288h102l178 288H200z"/>
    <glyph unicode="-" horiz-adv-x="880" d="M120 700V500h640v200z"/>
    <glyph unicode="i" horiz-adv-x="454" d="M226 1142c29 0 55 10 76 31s31 46 31 75-10 54-31 75-47 31-76 31-53-10-74-31-32-46-32-75 11-53 32-74 45-32 74-32m-102-142V0h200v1000z"/>
    <glyph unicode="í" horiz-adv-x="469" d="M169 1138h102l178 288H249m-129-426V0h200v1000z"/>
    <glyph unicode="î" horiz-adv-x="434" d="M121 1400L20 1166h133l65 153 63-153h133l-100 234m-198-400V0h200v1000z"/>
    <glyph unicode="ï" horiz-adv-x="697" d="M169 1168c60 0 106 46 106 106 0 29-10 55-31 76s-46 31-75 31c-31 0-56-10-77-31s-32-47-32-76c0-30 11-55 32-75 21-21 46-31 77-31m361 0c30 0 55 10 76 31 21 20 31 45 31 75 0 29-10 55-31 76s-47 31-76 31c-30 0-55-10-76-31s-32-46-32-76c0-61 47-106 108-106m-282-168V0h200v1000z"/>
    <glyph unicode="ì" horiz-adv-x="469" d="M20 1426l178-288h102l-80 288m-71-426V0h200v1000z"/>
    <glyph unicode="∞" horiz-adv-x="1501" d="M416 275h18c118 0 197 50 317 192 39-47 75-84 108-111 65-55 135-81 228-81 64 2 122 19 173 50 102 62 161 170 161 297 0 63-14 120-41 172-56 104-162 171-305 174-61 0-117-15-166-46-50-31-103-80-158-147-39 46-74 83-106 110-65 55-136 83-229 83-65-1-122-18-173-49C141 856 80 747 80 622c0-60 14-115 41-165 55-101 160-169 295-182m670 183c-27 0-52 6-75 18s-44 29-65 51c-21 21-49 53-83 95 33 41 59 72 79 93 40 43 86 70 142 70 47-3 84-20 113-51 28-31 42-69 42-112 0-83-62-158-153-164m-671 0c-44 3-80 20-109 51s-43 68-43 113c0 80 62 156 152 162h4c28 0 53-6 76-18 23-13 44-29 64-50 19-21 46-53 79-94-31-39-57-70-76-91-40-43-88-73-147-73z"/>
    <glyph unicode="∫" horiz-adv-x="991" d="M317-26c115 1 201 60 226 183l97 1037c5 39 33 67 69 67h8c36 0 67-24 72-77l121-12c1 7 1 14 1 22 0 35-9 71-27 107-19 36-46 66-83 90-37 23-78 35-123 35-36 0-71-8-105-24-68-32-118-91-127-159L348 202c-5-40-36-65-75-65-43 0-57 30-60 79L80 227c0-7-1-13-1-19 0-40 10-77 29-113C145 23 225-26 317-26z"/>
    <glyph unicode="j" horiz-adv-x="505" d="M248 1142c29 0 55 11 76 32s31 45 31 74-10 54-31 75-47 31-76 31-54-10-75-31-31-46-31-75 10-54 31-75 46-31 75-31M-80-500c79 0 151 19 217 56 65 38 117 89 155 154 37 65 56 135 56 212v1078H148V-78c0-41-10-79-30-113C78-258 4-300-80-300z"/>
    <glyph unicode="k" horiz-adv-x="1046" d="M978 0L635 594l341 406H714L333 545v955H133V0h200v234l165 197L748 0z"/>
    <glyph unicode="l" horiz-adv-x="465" d="M133 1h200v1499H133z"/>
    <glyph unicode="&lt;" horiz-adv-x="1160" d="M1080 149v208L227 600l853 242v209L80 765V433z"/>
    <glyph unicode="≤" horiz-adv-x="1160" d="M1080 336v208L227 787l853 243v208L80 952V620M80 0h1000v200H80z"/>
    <glyph unicode="¬" horiz-adv-x="1002" d="M722 300h200v600H80V700h642z"/>
    <glyph unicode="◊" horiz-adv-x="990" d="M328 0h334l268 702-266 698H326L60 702m435-568L271 702l224 568 226-568z"/>
    <glyph unicode="m" horiz-adv-x="1724" d="M88 1000V0h200v531c0 50 10 97 31 140 40 87 115 142 202 142 46 0 87-12 124-36 73-49 117-137 117-237V0h200v540c0 50 10 96 31 138 40 83 117 135 209 135 139 0 233-121 233-273V0h200v540c0 86-18 165-55 237s-88 129-154 172-141 64-224 64c-144 0-261-68-340-191-79 123-196 191-341 191-97 0-166-41-233-128v115z"/>
    <glyph unicode="¯" horiz-adv-x="1200" d="M262 1392v-200h676v200z"/>
    <glyph unicode="−" horiz-adv-x="1160" d="M80 500h1000v200H80z"/>
    <glyph unicode="×" horiz-adv-x="1008" d="M221 176l282 283 283-283 142 141-284 283 284 283-142 141-283-283-282 283L80 883l282-283L80 317z"/>
    <glyph unicode="n" horiz-adv-x="1142" d="M1042 0v526c-1 91-21 175-58 252s-90 138-157 183-144 67-231 67c-121 0-224-62-296-167v139H100V0h200v522c0 57 11 110 34 158 44 95 128 155 231 155 52 0 99-14 142-42 84-56 135-158 135-271V0z"/>
    <glyph unicode="9" horiz-adv-x="1078" d="M819 0h199v961c0 255-216 465-479 465S60 1216 60 961c0-256 216-466 479-466 104 0 201 33 280 89M258 947c0 153 127 280 281 280 153 0 280-127 280-280 0-154-127-281-280-281-154 0-281 127-281 281z"/>
    <glyph unicode="≠" horiz-adv-x="1160" d="M854 1182H646l-80-272H80V710h427l-64-219H80V291h305L305 18h207l81 273h487v200H652l63 219h365v200H774z"/>
    <glyph unicode="ñ" horiz-adv-x="1142" d="M753 1211c102 0 176 75 176 180 0 28-5 56-14 83l-124-40c5-14 7-28 7-41 0-29-11-50-38-50-20 0-49 16-114 55-95 57-154 89-205 89-106 0-175-76-175-176 0-28 5-56 14-83l123 34c-3 10-5 21-5 34 0 27 11 47 30 58 3 2 7 3 12 3 24 0 57-20 124-61 87-55 142-85 189-85M1042 0v526c-1 91-21 175-58 252s-90 138-157 183-144 67-231 67c-121 0-224-62-296-167v139H100V0h200v522c0 57 11 110 34 158 44 95 128 155 231 155 52 0 99-14 142-42 84-56 135-158 135-271V0z"/>
    <glyph unicode="#" horiz-adv-x="1547" d="M1415 899l52 194h-181l81 307h-200l-81-307H672l83 307H555l-83-307H290l-52-194h183L314 502H132L80 308h182L180 0h200l82 308h413L792 0h200l83 308h182l52 194h-183l107 397M926 502H514l107 397h412z"/>
    <glyph unicode="o" horiz-adv-x="1120" d="M560-26c91 0 174 24 251 71 76 47 137 111 182 192 45 80 67 168 67 263 0 96-22 184-67 265S887 910 811 957c-77 47-160 71-251 71s-174-24-250-71c-77-47-137-111-182-192S60 596 60 500c0-95 23-183 68-263 45-81 105-145 182-192 76-47 159-71 250-71m0 200c-54 0-104 15-149 44-92 58-151 162-151 282 0 58 13 112 40 163 53 100 149 165 260 165 54 0 104-15 150-44 92-60 150-167 150-284 0-58-13-112-39-162-53-100-150-164-261-164z"/>
    <glyph unicode="ó" horiz-adv-x="1120" d="M505 1138h102l178 288H585M560-26c91 0 174 24 251 71 76 47 137 111 182 192 45 80 67 168 67 263 0 96-22 184-67 265S887 910 811 957c-77 47-160 71-251 71s-174-24-250-71c-77-47-137-111-182-192S60 596 60 500c0-95 23-183 68-263 45-81 105-145 182-192 76-47 159-71 250-71m0 200c-54 0-104 15-149 44-92 58-151 162-151 282 0 58 13 112 40 163 53 100 149 165 260 165 54 0 104-15 150-44 92-60 150-167 150-284 0-58-13-112-39-162-53-100-150-164-261-164z"/>
    <glyph unicode="ô" horiz-adv-x="1120" d="M464 1400l-101-234h133l65 153 63-153h133l-100 234M560-26c91 0 174 24 251 71 76 47 137 111 182 192 45 80 67 168 67 263 0 96-22 184-67 265S887 910 811 957c-77 47-160 71-251 71s-174-24-250-71c-77-47-137-111-182-192S60 596 60 500c0-95 23-183 68-263 45-81 105-145 182-192 76-47 159-71 250-71m0 200c-54 0-104 15-149 44-92 58-151 162-151 282 0 58 13 112 40 163 53 100 149 165 260 165 54 0 104-15 150-44 92-60 150-167 150-284 0-58-13-112-39-162-53-100-150-164-261-164z"/>
    <glyph unicode="ö" horiz-adv-x="1120" d="M404 1168c60 0 106 46 106 106 0 29-10 55-31 76s-46 31-75 31c-31 0-56-10-77-31s-32-47-32-76c0-30 11-55 32-75 21-21 46-31 77-31m361 0c30 0 55 10 76 31 21 20 31 45 31 75 0 29-10 55-31 76s-47 31-76 31c-31 0-56-10-77-31s-31-46-31-76c0-61 47-106 108-106M560-26c91 0 174 24 251 71 76 47 137 111 182 192 45 80 67 168 67 263 0 96-22 184-67 265S887 910 811 957c-77 47-160 71-251 71s-174-24-250-71c-77-47-137-111-182-192S60 596 60 500c0-95 23-183 68-263 45-81 105-145 182-192 76-47 159-71 250-71m0 200c-54 0-104 15-149 44-92 58-151 162-151 282 0 58 13 112 40 163 53 100 149 165 260 165 54 0 104-15 150-44 92-60 150-167 150-284 0-58-13-112-39-162-53-100-150-164-261-164z"/>
    <glyph unicode="œ" horiz-adv-x="1919" d="M560-26c83 0 160 21 231 63s127 98 169 169c42-71 99-127 170-169s147-63 230-63c197 0 372 124 452 302l-203 48c-56-95-145-150-249-150-149 0-260 110-286 256h779c2 22 3 43 3 64 0 98-21 188-64 270-43 81-103 146-178 193-76 47-161 71-254 71-83 0-159-21-230-63s-128-98-170-169c-42 71-98 127-169 169s-148 63-231 63c-91 0-174-24-250-71-77-47-137-111-182-192S60 596 60 500c0-95 23-183 68-263 45-81 105-145 182-192 76-47 159-71 250-71m507 610c7 50 25 95 53 136 55 81 143 131 240 131 49 0 94-12 136-36 84-48 142-134 155-231M560 174c-54 0-104 15-149 44-92 58-151 162-151 282 0 58 13 112 40 163 53 100 149 165 260 165 54 0 104-15 150-44 92-60 150-167 150-284 0-58-13-112-39-162-53-100-150-164-261-164z"/>
    <glyph unicode="˛" horiz-adv-x="1143" d="M715-407v152h-87c-36 0-70 10-103 30-66 40-111 111-111 183V62H262V-40c0-66 17-127 50-184 33-56 77-101 134-134s118-49 185-49z"/>
    <glyph unicode="ò" horiz-adv-x="1120" d="M320 1426l178-288h102l-80 288M560-26c91 0 174 24 251 71 76 47 137 111 182 192 45 80 67 168 67 263 0 96-22 184-67 265S887 910 811 957c-77 47-160 71-251 71s-174-24-250-71c-77-47-137-111-182-192S60 596 60 500c0-95 23-183 68-263 45-81 105-145 182-192 76-47 159-71 250-71m0 200c-54 0-104 15-149 44-92 58-151 162-151 282 0 58 13 112 40 163 53 100 149 165 260 165 54 0 104-15 150-44 92-60 150-167 150-284 0-58-13-112-39-162-53-100-150-164-261-164z"/>
    <glyph unicode="1" horiz-adv-x="654" d="M245 200H110V0h470v200H445v1200H135l-55-200h165z"/>
    <glyph unicode="⅛" horiz-adv-x="1249" d="M330 946h-61V818h250v128h-61v503H277l-18-128h71M120 0h170l808 1400H928M915-31c119 0 214 90 214 205 0 60-25 116-66 153 32 35 52 82 52 130 0 111-91 195-200 195s-198-84-198-195c0-48 20-95 52-130-41-37-66-93-66-153 0-115 95-205 212-205m0 418c-37 0-70 33-70 70 0 39 31 67 70 67 41 0 72-27 72-67 0-37-32-70-72-70m0-292c-47 0-84 34-84 79 0 47 37 85 84 85 48 0 86-38 86-85 0-45-38-79-86-79z"/>
    <glyph unicode="½" horiz-adv-x="1288" d="M290 946h-61V818h250v128h-61v503H237l-18-128h71M120 0h170l808 1400H928M704 116V0h456v128H934c69 54 125 106 168 155s65 98 65 147c0 41-10 80-31 115-41 70-115 112-199 112-43 0-82-10-117-30-72-40-116-114-116-197h128c0 57 46 99 105 99 57 0 102-42 102-99-11-35-33-70-64-104s-65-64-101-91-80-58-132-93z"/>
    <glyph unicode="¼" horiz-adv-x="1219" d="M280 946h-61V818h250v128h-61v503H227l-18-128h71M120 0h170l333 577 1-434h255V0h128v143h64v128h-64v360H879V271H752v360h-98l444 769H928z"/>
    <glyph unicode="¹" horiz-adv-x="439" d="M167 946h-61V818h250v128h-61v503H114l-18-128h71z"/>
    <glyph unicode="ª" horiz-adv-x="1234" d="M1114 1000H914V850c-69 111-179 178-318 178-95 0-183-24-263-71-81-47-145-111-192-192S70 596 70 500c0-95 24-183 71-263 47-81 111-145 192-192 80-47 168-71 263-71 139 0 249 69 318 178V0h200M598 167c-57 0-111 15-160 45-100 59-163 167-163 288 0 61 15 117 44 168 58 102 162 166 279 166 58 0 110-15 156-44 91-60 143-166 143-290 0-61-12-116-37-167-50-101-145-166-262-166z"/>
    <glyph unicode="º" horiz-adv-x="1120" d="M560-26c91 0 174 24 251 71 76 47 137 111 182 192 45 80 67 168 67 263 0 96-22 184-67 265S887 910 811 957c-77 47-160 71-251 71s-174-24-250-71c-77-47-137-111-182-192S60 596 60 500c0-95 23-183 68-263 45-81 105-145 182-192 76-47 159-71 250-71m0 200c-54 0-104 15-149 44-92 58-151 162-151 282 0 58 13 112 40 163 53 100 149 165 260 165 54 0 104-15 150-44 92-60 150-167 150-284 0-58-13-112-39-162-53-100-150-164-261-164z"/>
    <glyph unicode="ø" horiz-adv-x="1120" d="M185 16l143-83 46 81c61-27 123-40 186-40 91 0 174 24 251 71 76 47 137 111 182 192 45 80 67 168 67 263 0 157-66 301-174 400l50 87-143 83-48-81c-57 26-119 39-185 39-91 0-174-24-250-71-77-47-137-111-182-192S60 596 60 500c0-155 67-298 175-397m99 170c-55 55-88 130-88 217 0 64 15 123 45 177s70 97 119 129c49 31 102 47 157 47 31 0 60-5 87-14m133-99c53-56 87-135 87-219 0-64-14-123-43-176-58-108-162-175-275-175-32 0-62 5-90 14z"/>
    <glyph unicode="õ" horiz-adv-x="1120" d="M716 1211c102 0 176 75 176 180 0 28-5 56-14 83l-124-40c5-14 7-28 7-41 0-29-11-50-38-50-20 0-49 16-114 55-95 57-154 89-205 89-106 0-175-76-175-176 0-28 5-56 14-83l123 34c-3 10-5 21-5 34 0 27 11 47 30 58 3 2 7 3 12 3 24 0 57-20 124-61 87-55 142-85 189-85M560-26c91 0 174 24 251 71 76 47 137 111 182 192 45 80 67 168 67 263 0 96-22 184-67 265S887 910 811 957c-77 47-160 71-251 71s-174-24-250-71c-77-47-137-111-182-192S60 596 60 500c0-95 23-183 68-263 45-81 105-145 182-192 76-47 159-71 250-71m0 200c-54 0-104 15-149 44-92 58-151 162-151 282 0 58 13 112 40 163 53 100 149 165 260 165 54 0 104-15 150-44 92-60 150-167 150-284 0-58-13-112-39-162-53-100-150-164-261-164z"/>
    <glyph unicode="p" horiz-adv-x="1243" d="M120-500h200v650C389 39 498-28 637-28c95 0 183 24 264 71s145 111 192 192 70 169 70 265c0 95-23 183-70 264-47 80-111 144-192 191s-169 71-264 71c-139 0-248-67-317-178v152H120m515-167c59 0 113-15 163-45 100-60 162-168 162-288 0-61-15-117-44-168-60-102-165-166-281-166-58 0-110 15-155 45-91 59-143 166-143 289 0 61 13 117 38 168 51 101 145 165 260 165z"/>
    <glyph unicode="¶" horiz-adv-x="973" d="M420-302h200v1702H420c-61 0-118-15-170-46-105-61-170-171-170-295 0-62 15-119 46-171 60-105 170-170 294-170M693-302h200v1702H693z"/>
    <glyph unicode="(" horiz-adv-x="709" d="M609-112C526-20 458 92 405 224c-54 131-82 271-85 420 1 88 16 183 43 286s63 197 107 282 90 148 139 188H409c-56-34-106-94-150-180-44-87-78-182-102-287-25-105-37-202-37-289 0-312 89-564 289-756z"/>
    <glyph unicode=")" horiz-adv-x="709" d="M300-112C500 80 589 332 589 644c0 87-12 184-36 289-25 105-59 200-103 287-44 86-94 146-150 180H100c49-40 95-103 139-188s80-179 107-282 42-198 43-286c-3-149-31-290-84-421S183-20 100-112z"/>
    <glyph unicode="∂" horiz-adv-x="1165" d="M583-26c97 0 183 23 260 69 76 46 135 110 178 193 43 82 64 175 64 280 0 177-31 343-94 496s-151 275-263 366c-113 91-240 136-381 136l1-200c121 0 219-42 294-125 75-84 129-187 164-309-53 63-135 99-223 99-91 0-174-22-251-67S193 806 148 729 80 567 80 476s23-174 68-251S255 87 332 42c77-46 160-68 251-68m0 200c-55 0-105 14-152 41-93 55-151 153-151 261 0 54 14 104 41 151 54 93 151 152 262 152 55 0 105-14 152-41 93-55 151-153 151-262 0-53-13-103-40-149-54-93-152-153-263-153z"/>
    <glyph unicode="%" horiz-adv-x="1413" d="M186 0h231l808 1400H994M355 818c49 0 94 12 136 37 84 48 138 136 138 237 0 50-12 96-37 138-49 84-138 137-237 137-49 0-94-12-136-36-85-49-139-138-139-239 0-50 13-96 38-138 50-84 138-136 237-136m0 142c-72 0-133 59-133 132 0 72 61 133 133 133 73 0 132-61 132-133 0-73-59-132-132-132m703-928c49 0 95 13 138 38 84 50 137 138 137 237 0 49-12 94-36 136-49 84-138 139-239 139-49 0-94-12-136-36-84-49-139-138-139-239 0-48 12-93 37-135 49-85 138-140 238-140m0 142c-72 0-133 61-133 133s61 133 133 133 133-61 133-133-61-133-133-133z"/>
    <glyph unicode="." horiz-adv-x="413" d="M186-26c29 0 55 10 76 31s31 46 31 76c0 29-10 54-31 75s-47 31-76 31-54-10-75-31-31-46-31-75c0-30 10-55 31-76s46-31 75-31z"/>
    <glyph unicode="·" horiz-adv-x="373" d="M186 494c29 0 55 10 76 31s31 46 31 75-10 54-31 75-47 31-76 31-54-10-75-31-31-46-31-75 10-54 31-75 46-31 75-31z"/>
    <glyph unicode="‰" horiz-adv-x="2003" d="M186 0h231l808 1400H994M355 818c49 0 94 12 136 37 84 48 138 136 138 237 0 50-12 96-37 138-49 84-138 137-237 137-49 0-94-12-136-36-85-49-139-138-139-239 0-50 13-96 38-138 50-84 138-136 237-136m0 142c-72 0-133 59-133 132 0 72 61 133 133 133 73 0 132-61 132-133 0-73-59-132-132-132m678-928c49 0 95 13 138 38 84 50 137 138 137 237 0 49-12 94-36 136-49 84-138 139-239 139-49 0-94-12-136-36-84-49-139-138-139-239 0-48 12-93 37-135 49-85 138-140 238-140m616 0c49 0 95 13 137 38 84 50 137 138 137 237 0 49-12 94-36 136-48 84-137 139-238 139-49 0-94-12-136-36-84-49-139-138-139-239 0-48 12-93 37-135 49-85 138-140 238-140m-616 142c-72 0-133 61-133 133s61 133 133 133 133-61 133-133-61-133-133-133m616 0c-72 0-133 61-133 133s61 133 133 133 133-61 133-133-61-133-133-133z"/>
    <glyph unicode="+" horiz-adv-x="1160" d="M480 100h200v400h400v200H680v400H480V700H80V500h400z"/>
    <glyph unicode="±" horiz-adv-x="1160" d="M480 358h200v400h400v200H680v400H480V958H80V758h400M80 1h1000v200H80z"/>
    <glyph unicode="∏" horiz-adv-x="1280" d="M80 1400v-200h160V0h200v1200h400V0h200v1200h160v200z"/>
    <glyph unicode="q" horiz-adv-x="1243" d="M606-28c139 0 248 67 317 178v-650h200l280 273-128 133-152-148v1242H923V848c-69 111-178 178-317 178-95 0-183-24-263-71-81-47-145-111-192-191-47-81-71-169-71-264 0-96 24-184 71-265S262 90 343 43c80-47 168-71 263-71m2 861c58 0 110-15 155-44 91-60 143-166 143-289 0-61-12-117-37-168-50-102-144-166-261-166-58 0-112 15-161 45-99 59-162 166-162 289 0 60 15 116 44 167 58 102 162 166 279 166z"/>
    <glyph unicode="?" horiz-adv-x="1063" d="M625 451c0 69 36 130 97 162 69 37 123 89 162 158s59 144 59 225c0 78-19 150-58 216s-91 118-157 157c-67 39-139 58-217 58s-150-19-216-58-118-91-157-157-58-138-58-216h200c0 42 10 81 31 116 41 71 116 115 200 115 42 0 81-10 117-31 71-41 115-116 115-200 0-89-44-169-116-206-63-35-113-82-148-142-36-60-54-126-54-197M529-26c29 0 54 10 75 32 20 21 30 46 30 76 0 29-10 54-30 75-21 20-46 30-75 30s-54-10-75-30c-21-21-31-46-31-75 0-30 10-55 31-76 21-22 46-32 75-32z"/>
    <glyph unicode="¿" horiz-adv-x="1047" d="M495 814c29 0 54 10 75 30 20 20 30 45 30 74 0 31-10 56-30 77-21 21-46 31-75 31s-54-10-75-31-31-46-31-77c0-29 10-53 31-73 21-21 46-31 75-31m17-1241c78 0 150 19 217 58 66 39 118 91 157 157S944-74 944 4H744c0-42-10-81-31-116-41-71-117-115-201-115-42 0-81 10-116 31C325-155 280-80 280 4c0 89 44 168 116 207 63 35 112 82 148 142s54 126 54 197H398c0-71-36-131-97-163-69-37-123-89-162-157C100 161 80 86 80 4c0-78 19-150 58-216s91-118 158-157c66-39 138-58 216-58z"/>
    <glyph unicode="&quot;" horiz-adv-x="559" d="M68 878h142v522H68m281-522h142v522H349z"/>
    <glyph unicode="„" horiz-adv-x="734" d="M63-112h133l129 338H125m267-338h133l129 338H454z"/>
    <glyph unicode="“" horiz-adv-x="738" d="M436 882h200l62 522H565M120 878h200l62 522H249z"/>
    <glyph unicode="”" horiz-adv-x="738" d="M40 878h133l129 522H102m254-522h133l129 522H418z"/>
    <glyph unicode="’" horiz-adv-x="362" d="M40 878h133l129 522H102z"/>
    <glyph unicode="‚" horiz-adv-x="405" d="M63-112h133l129 338H125z"/>
    <glyph unicode="'" horiz-adv-x="278" d="M68 878h142v522H68z"/>
    <glyph unicode="r" horiz-adv-x="770" d="M740 1012c-31 10-72 15-123 15-121 0-225-61-297-166v138H120V0h201v521c0 57 11 110 34 158 44 96 127 155 231 155 44 0 84-11 121-34z"/>
    <glyph unicode="√" horiz-adv-x="1321" d="M887 1400L464 241 292 708H80L338 0h251l438 1200h214v200z"/>
    <glyph unicode="®" horiz-adv-x="1070" d="M534 426c86 0 165 21 238 64s131 100 174 173 64 152 64 238c0 84-21 162-63 235-43 73-100 131-173 175-73 43-153 65-240 65-86 0-165-21-237-64-73-43-130-101-173-174S60 986 60 901s21-164 64-237c42-73 99-130 172-173s152-65 238-65m0 147c-59 0-114 15-163 44-100 59-163 165-163 284 0 59 15 114 44 164 59 100 165 163 282 163 59 0 114-15 165-44 100-59 163-164 163-283 0-59-15-114-44-164-59-101-165-164-284-164m-131 547V705h90v158h23l93-158h103L612 876c44 19 73 63 73 115 0 35-12 66-35 91-24 25-53 38-88 38m-69-168v79h69c19 0 34-17 34-40 0-21-15-39-34-39z"/>
    <glyph unicode="˚" horiz-adv-x="1148" d="M574 1107c95 0 174 79 174 176 0 93-79 173-174 173s-174-80-174-173c0-95 79-176 174-176m0 84c-51 0-90 40-90 92 0 24 9 45 27 62 17 17 38 26 63 26s46-9 64-26c17-17 26-38 26-62 0-52-39-92-90-92z"/>
    <glyph unicode="s" horiz-adv-x="885" d="M457-20c64 0 124 13 181 39 112 52 185 149 185 265v7c0 74-30 134-90 181-61 47-144 87-250 122-9 3-27 8-55 16-37 10-65 19-85 27-41 16-72 44-72 91 0 43 18 76 53 99s80 34 134 34c43 0 84-11 124-32 39-21 67-48 84-80l159 94c-35 59-86 106-152 140-67 34-140 51-221 51-65 0-125-13-182-38C157 944 83 846 83 723c0-82 32-147 96-195 63-49 151-86 262-112 47-13 83-23 106-31 47-16 90-48 90-104 0-39-18-70-54-93-37-23-81-35-132-35-95 0-193 58-221 116L60 196c19-43 49-81 90-114C232 17 344-20 457-20z"/>
    <glyph unicode="§" horiz-adv-x="1091" d="M544-384c65 0 126 13 183 38 112 51 186 149 186 272 0 103-54 172-162 212 66 33 119 82 160 147 40 65 60 137 60 214 0 119-36 217-107 294S696 921 574 946c-49 11-87 20-113 28-53 16-95 48-95 104 0 42 17 75 52 98s79 35 132 35c43 0 85-11 126-32 40-21 68-48 85-80l159 94c-35 59-85 106-152 140s-140 51-221 51c-65 0-126-13-182-38-113-52-187-149-187-272 0-102 54-173 161-212-65-33-118-82-158-148-41-66-61-138-61-215 0-74 17-142 51-205C238 168 362 80 513 56c45-9 83-17 112-26 58-18 100-51 100-108 0-42-17-75-52-98s-78-35-131-35c-44 0-86 11-126 32s-68 48-85 80l-160-94c35-59 86-106 153-140s140-51 220-51m10 625c-47 0-89 11-128 34-78 45-128 129-128 224 0 45 11 87 33 127 43 80 121 133 202 133 48 0 92-11 132-32 79-44 128-126 128-230 0-44-11-86-32-125-44-79-123-131-207-131z"/>
    <glyph unicode=";" horiz-adv-x="467" d="M241 788c29 0 54 10 75 31 21 20 31 45 31 74s-10 55-31 76-46 31-75 31c-30 0-55-10-75-31-21-21-31-46-31-76 0-29 10-54 31-74 20-21 45-31 75-31M80-112h133l129 338H142z"/>
    <glyph unicode="7" horiz-adv-x="1087" d="M123 0h230l644 1200v200H40v-200h725z"/>
    <glyph unicode="⅞" horiz-adv-x="1249" d="M292 818h147l288 504v125H264v-128h315M120 0h170l808 1400H928M915-31c119 0 214 90 214 205 0 60-25 116-66 153 32 35 52 82 52 130 0 111-91 195-200 195s-198-84-198-195c0-48 20-95 52-130-41-37-66-93-66-153 0-115 95-205 212-205m0 418c-37 0-70 33-70 70 0 39 31 67 70 67 41 0 72-27 72-67 0-37-32-70-72-70m0-292c-47 0-84 34-84 79 0 47 37 85 84 85 48 0 86-38 86-85 0-45-38-79-86-79z"/>
    <glyph unicode="6" horiz-adv-x="1089" d="M538-26c89 0 171 22 246 66s135 104 179 179 66 157 66 245c0 87-21 167-64 239S864 832 793 873s-147 62-228 62c-33 0-65-3-94-10l275 475H514L119 716c-48-88-69-159-69-252 0-89 22-170 66-245S220 84 295 40s156-66 243-66m0 200c-50 0-97 13-141 39-89 51-147 144-147 251 0 51 13 98 38 143 51 88 143 146 252 146 53 0 102-13 146-39 88-52 143-146 143-250 0-50-13-97-38-142-51-89-144-148-253-148z"/>
    <glyph unicode="/" horiz-adv-x="765" d="M685 1400H485L80-112h200z"/>
    <glyph horiz-adv-x="480"/>
    <glyph unicode="£" horiz-adv-x="1181" d="M581 344c0 37-5 72-14 103h299v142H480c-20 21-39 38-52 51-33 31-60 58-79 81-39 45-69 109-69 196 0 56 14 108 42 155 56 95 156 154 267 154 57 0 109-14 157-41 95-56 155-156 155-268h200c0 92-23 177-69 255s-108 140-186 186c-79 45-164 68-257 68-91 0-176-23-254-69s-140-108-186-186-69-163-69-254c0-46 8-87 23-123 15-37 33-68 54-95s49-58 84-94l16-16H104V447h256c5-14 10-30 13-47 4-12 6-24 6-36 0-32-13-60-40-85-54-50-147-79-235-79V0h982v200H501c20 12 38 32 55 59s25 56 25 85z"/>
    <glyph unicode="∑" horiz-adv-x="937" d="M80 0h797v200H306l253 498-253 498h571v200H80v-200l255-498L80 200z"/>
    <glyph unicode="t" horiz-adv-x="705" d="M646 771v200H433l-1 343H232l1-343H71V771h162L232 0h200l1 771z"/>
    <glyph unicode="þ" horiz-adv-x="1243" d="M120 1400V-500h200v650C389 39 498-28 637-28c95 0 183 24 264 71s145 111 192 192 70 169 70 265c0 95-23 183-70 264-47 80-111 144-192 191s-169 71-264 71c-139 0-248-67-317-178v552M635 166c-58 0-110 15-155 45-91 59-143 166-143 289 0 61 13 117 38 168 51 101 145 165 260 165 59 0 113-15 163-45 100-60 162-168 162-288 0-61-15-117-44-168-60-102-165-166-281-166z"/>
    <glyph unicode="3" horiz-adv-x="1006" d="M503-26c79 0 152 20 220 59s122 92 163 159c40 67 60 139 60 217 0 145-75 285-208 333 51 21 92 58 122 111s45 110 45 172c0 73-19 140-56 202-38 61-89 110-152 146s-131 54-203 54c-73 0-142-18-207-54-65-37-118-86-157-147-39-62-59-129-59-201h200c0 36 11 70 33 101 43 62 117 101 192 101 36 0 70-9 103-27 64-37 106-103 106-175 0-137-111-212-294-212V655c102 0 183-21 244-63s91-103 91-183c0-42-11-81-34-117-45-72-125-118-209-118-47 0-89 11-126 32-74 42-117 118-117 203H60c0-79 19-152 58-219 38-67 91-119 159-158 67-39 143-58 226-58z"/>
    <glyph unicode="⅜" horiz-adv-x="1249" d="M341 798c115 0 211 85 211 202 0 63-22 110-69 151 31 29 51 79 51 130 0 107-88 186-198 186-108 0-197-79-197-186h128c0 37 32 65 69 65 39 0 70-28 70-65 0-51-37-88-114-88v-91c83 0 132-45 132-102 0-47-36-81-83-81-48 0-85 33-85 81H128c0-117 96-202 213-202M120 0h170l808 1400H928M915-31c119 0 214 90 214 205 0 60-25 116-66 153 32 35 52 82 52 130 0 111-91 195-200 195s-198-84-198-195c0-48 20-95 52-130-41-37-66-93-66-153 0-115 95-205 212-205m0 418c-37 0-70 33-70 70 0 39 31 67 70 67 41 0 72-27 72-67 0-37-32-70-72-70m0-292c-47 0-84 34-84 79 0 47 37 85 84 85 48 0 86-38 86-85 0-45-38-79-86-79z"/>
    <glyph unicode="¾" horiz-adv-x="1219" d="M341 798c115 0 211 85 211 202 0 63-22 110-69 151 31 29 51 79 51 130 0 107-88 186-198 186-108 0-197-79-197-186h128c0 37 32 65 69 65 39 0 70-28 70-65 0-51-37-88-114-88v-91c83 0 132-45 132-102 0-47-36-81-83-81-48 0-85 33-85 81H128c0-117 96-202 213-202M120 0h170l333 577 1-434h255V0h128v143h64v128h-64v360H879V271H752v360h-98l444 769H928z"/>
    <glyph unicode="³" horiz-adv-x="568" d="M285 798c115 0 211 85 211 202 0 63-22 110-69 151 31 29 51 79 51 130 0 107-88 186-198 186-108 0-197-79-197-186h128c0 37 32 65 69 65 39 0 70-28 70-65 0-51-37-88-114-88v-91c83 0 132-45 132-102 0-47-36-81-83-81-48 0-85 33-85 81H72c0-117 96-202 213-202z"/>
    <glyph unicode="˜" horiz-adv-x="1228" d="M780 1211c102 0 176 75 176 180 0 28-5 56-14 83l-124-40c5-14 7-28 7-41 0-29-11-50-38-50-20 0-49 16-114 55-95 57-154 89-205 89-106 0-175-76-175-176 0-28 5-56 14-83l123 34c-3 10-5 21-5 34 0 27 11 47 30 58 3 2 7 3 12 3 24 0 57-20 124-61 87-55 142-85 189-85z"/>
    <glyph unicode="̃" horiz-adv-x="0" d="M-676 1244c102 0 176 75 176 180 0 28-5 56-14 83l-124-40c5-14 7-28 7-41 0-29-11-50-38-50-20 0-49 16-114 55-95 57-154 89-205 89-106 0-175-76-175-176 0-28 5-56 14-83l123 34c-3 10-5 21-5 34 0 27 11 47 30 58 3 2 7 3 12 3 24 0 57-20 124-61 87-55 142-85 189-85z"/>
    <glyph unicode="™" horiz-adv-x="2887" d="M1179 1400H80v-200h449V0h200v1200h450m0-1200h204l184 953 338-895h134l339 895L2562 0h204l-272 1400h-160l-361-953-363 953h-160z"/>
    <glyph unicode="2" horiz-adv-x="1120" d="M80 0h920v200H443c108 103 201 197 278 283 77 85 141 171 191 256s75 164 75 237c0 81-20 157-60 226-41 69-95 123-163 164-69 40-143 60-224 60s-155-20-224-60-124-94-165-163-61-144-61-227h200c0 45 11 86 34 125 45 76 127 125 216 125 45 0 86-11 124-34 76-45 123-127 123-216 0-87-71-203-212-347S269 335 80 178z"/>
    <glyph unicode="²" horiz-adv-x="703" d="M96 934V818h456v128H326c68 53 124 104 168 154 43 49 65 98 65 147 0 125-105 221-230 221-43 0-82-9-117-28-72-38-116-109-116-193h128c0 57 46 100 105 100 57 0 102-43 102-100-33-101-142-186-301-290z"/>
    <glyph unicode="u" horiz-adv-x="1182" d="M120 1000V476c1-91 21-175 58-252S268 86 335 41c67-46 144-68 231-68 121 0 224 62 296 167V0h200v1000H862V480c0-57-11-110-33-157-45-96-129-156-232-156-52 0-99 14-141 42-85 56-136 156-136 271v520z"/>
    <glyph unicode="ú" horiz-adv-x="1182" d="M510 1138h102l178 288H590m-470-426V476c1-91 21-175 58-252S268 86 335 41c67-46 144-68 231-68 121 0 224 62 296 167V0h200v1000H862V480c0-57-11-110-33-157-45-96-129-156-232-156-52 0-99 14-141 42-85 56-136 156-136 271v520z"/>
    <glyph unicode="û" horiz-adv-x="1182" d="M484 1400l-101-234h133l65 153 63-153h133l-100 234m-557-400V476c1-91 21-175 58-252S268 86 335 41c67-46 144-68 231-68 121 0 224 62 296 167V0h200v1000H862V480c0-57-11-110-33-157-45-96-129-156-232-156-52 0-99 14-141 42-85 56-136 156-136 271v520z"/>
    <glyph unicode="ü" horiz-adv-x="1182" d="M411 1168c60 0 106 46 106 106 0 29-10 55-31 76s-46 31-75 31c-31 0-56-10-77-31s-32-47-32-76c0-30 11-55 32-75 21-21 46-31 77-31m361 0c30 0 55 10 76 31 21 20 31 45 31 75 0 29-10 55-31 76s-47 31-76 31c-31 0-56-10-77-31s-31-46-31-76c0-61 47-106 108-106m-652-168V476c1-91 21-175 58-252S268 86 335 41c67-46 144-68 231-68 121 0 224 62 296 167V0h200v1000H862V480c0-57-11-110-33-157-45-96-129-156-232-156-52 0-99 14-141 42-85 56-136 156-136 271v520z"/>
    <glyph unicode="ù" horiz-adv-x="1182" d="M353 1426l178-288h102l-80 288m-433-426V476c1-91 21-175 58-252S268 86 335 41c67-46 144-68 231-68 121 0 224 62 296 167V0h200v1000H862V480c0-57-11-110-33-157-45-96-129-156-232-156-52 0-99 14-141 42-85 56-136 156-136 271v520z"/>
    <glyph unicode="_" horiz-adv-x="1240" d="M0 88v-200h1240V88z"/>
    <glyph horiz-adv-x="1200"/>
    <glyph horiz-adv-x="480"/>
    <glyph unicode="­" horiz-adv-x="897" d="M137 700V500h640v200z"/>
    <glyph unicode="µ" horiz-adv-x="1102" d="M80 1000V-432h200V87C341 16 429-27 526-27c121 0 224 62 296 167V0h200v1000H822V480c0-57-11-110-33-157-45-96-129-156-232-156-52 0-99 14-141 42-85 56-136 156-136 271v520z"/>
    <glyph unicode="ʻ" horiz-adv-x="362" d="M60 878h200l62 522H189z"/>
    <glyph unicode="ʼ" horiz-adv-x="477" d="M40 878h133l129 522H102z"/>
    <glyph unicode="̂" horiz-adv-x="0" d="M-693 1400l-101-234h133l65 153 63-153h133l-100 234z"/>
    <glyph unicode="̇" horiz-adv-x="0" d="M-506 1168c60 0 106 46 106 106 0 30-10 55-31 76-21 20-46 30-75 30-31 0-56-10-77-30-21-21-31-46-31-76 0-61 47-106 108-106z"/>
    <glyph unicode="̈" horiz-adv-x="0" d="M-868 1168c60 0 106 46 106 106 0 29-10 55-31 76s-46 31-75 31c-31 0-57-10-78-31s-31-47-31-76c0-30 10-55 31-75 21-21 47-31 78-31m361 0c30 0 55 10 76 31 21 20 31 45 31 75 0 29-11 55-32 76s-46 31-75 31c-31 0-56-10-77-31s-31-46-31-76c0-61 47-106 108-106z"/>
    <glyph unicode="̊" horiz-adv-x="0" d="M-574 1107c95 0 174 79 174 176 0 93-79 173-174 173s-174-80-174-173c0-95 79-176 174-176m0 84c-51 0-90 40-90 92 0 24 9 45 26 62 18 17 39 26 64 26s46-9 63-26c18-17 27-38 27-62 0-52-39-92-90-92z"/>
    <glyph unicode="̧" horiz-adv-x="0" d="M-853-154v-152h85c67 0 128 16 184 49 113 66 184 186 184 318v85h-152V59c0-36-10-71-30-104-40-66-111-109-184-109z"/>
    <glyph unicode="μ" horiz-adv-x="1102" d="M80 1000V-432h200V87C341 16 429-27 526-27c121 0 224 62 296 167V0h200v1000H822V480c0-57-11-110-33-157-45-96-129-156-232-156-52 0-99 14-141 42-85 56-136 156-136 271v520z"/>
    <glyph horiz-adv-x="1000"/>
    <glyph horiz-adv-x="400"/>
    <glyph unicode="​" horiz-adv-x="0"/>
    <glyph unicode="‵" horiz-adv-x="502" d="M249 878h133l-62 522H120z"/>
    <glyph unicode="⁰" horiz-adv-x="648" d="M324 798c46 0 88 15 127 44 76 59 125 166 125 291 0 63-11 120-34 171-45 102-126 164-218 164-46 0-88-15-126-44-77-59-126-166-126-291 0-63 11-119 34-170 45-102 126-165 218-165m0 121c-24 0-45 11-64 32-38 42-60 113-60 182 0 33 5 67 15 100 19 66 58 114 109 114 24 0 46-10 65-31 38-42 59-115 59-183 0-31-5-64-15-97-21-67-60-117-109-117z"/>
    <glyph unicode="⁴" horiz-adv-x="687" d="M351 1089H224v360H95l1-488h255V818h128v143h64v128h-64v360H351z"/>
    <glyph unicode="⁵" horiz-adv-x="691" d="M315 798c129 0 232 92 232 219 0 139-103 228-257 228-12 0-21 0-27-1l5 91h228v114H152l-32-349c68 15 130 20 171 20 8 0 16-1 24-1 29-1 53-12 74-31 20-20 30-44 30-71 0-28-10-51-30-70-21-19-45-28-74-28-57 0-103 42-103 98H84c0-42 10-80 31-113 41-67 116-106 200-106z"/>
    <glyph unicode="⁶" horiz-adv-x="706" d="M329 798c127 0 233 89 233 220 0 120-93 221-224 227l117 201H307c-13-24-32-54-52-90-52-88-88-150-107-185-20-36-34-64-41-85s-11-44-11-67c0-127 101-221 233-221m0 121c-57 0-104 37-104 98 0 29 10 54 29 75s44 31 75 31c28 0 52-10 73-29 21-20 31-45 31-76 0-56-45-99-104-99z"/>
    <glyph unicode="⁷" horiz-adv-x="655" d="M148 818h147l288 504v125H120v-128h315z"/>
    <glyph unicode="⁸" horiz-adv-x="618" d="M308 798c119 0 214 83 214 199 0 60-25 114-66 153 32 33 52 82 52 130 0 110-90 189-200 189-109 0-198-79-198-189 0-48 20-97 52-130-41-39-66-93-66-153 0-116 95-199 212-199m0 412c-37 0-70 33-70 70 0 39 31 67 70 67 41 0 72-27 72-67 0-39-32-70-72-70m0-292c-47 0-84 34-84 79 0 47 37 85 84 85 48 0 86-38 86-85 0-45-38-79-86-79z"/>
    <glyph unicode="⁹" horiz-adv-x="658" d="M304 1022c38 0 74 9 105 25V818h124v427c0 122-103 223-229 223S75 1367 75 1245s103-223 229-223m-102 223c0 56 47 102 104 102 56 0 103-46 103-102 0-57-47-103-103-103-57 0-104 46-104 103z"/>
    <glyph unicode="₀" horiz-adv-x="648" d="M324-31c46 0 88 15 127 45 76 60 125 171 125 296 0 63-11 120-34 172-45 104-126 169-218 169-46 0-88-15-126-45-77-61-126-171-126-296 0-63 11-120 34-172C151 33 232-31 324-31m0 128c-24 0-45 10-64 31-38 41-60 113-60 182 0 33 5 67 15 100 19 66 58 113 109 113 24 0 46-10 65-31 38-42 59-114 59-182 0-31-5-64-15-97-21-67-60-116-109-116z"/>
    <glyph unicode="₁" horiz-adv-x="439" d="M167 128h-61V0h250v128h-61v503H114L96 503h71z"/>
    <glyph unicode="₂" horiz-adv-x="703" d="M96 116V0h456v128H326c69 54 125 106 168 155s65 98 65 147c0 41-10 80-31 115-41 70-115 112-199 112-43 0-82-10-117-30-72-40-116-114-116-197h128c0 57 46 99 105 99 57 0 102-42 102-99-11-35-33-70-64-104s-65-64-101-91-80-58-132-93z"/>
    <glyph unicode="₃" horiz-adv-x="568" d="M285-31c38 0 73 9 106 27 64 37 105 105 105 181 0 63-22 109-69 152 31 29 51 79 51 130 0 108-89 192-198 192-108 0-197-85-197-192h128c0 36 32 64 69 64 39 0 70-28 70-64 0-51-37-88-114-88v-92c83 0 132-45 132-102 0-47-36-80-83-80-48 0-85 33-85 80H72c0-38 10-73 29-105C139 8 208-31 285-31z"/>
    <glyph unicode="₄" horiz-adv-x="687" d="M351 271H224v360H95l1-488h255V0h128v143h64v128h-64v360H351z"/>
    <glyph unicode="₅" horiz-adv-x="691" d="M315-31c42 0 81 10 117 29 71 40 115 112 115 196 0 131-90 230-230 230l-54-3 5 89h228v115H152l-33-343 196 14c29 0 53-10 74-29 20-20 30-44 30-73 0-56-47-97-104-97s-103 41-103 97H84c0-42 10-80 31-114C156 11 231-31 315-31z"/>
    <glyph unicode="₆" horiz-adv-x="682" d="M329-31c41 0 80 10 116 29 71 39 117 112 117 197 0 121-93 221-224 227l118 203H307l-57-97c-51-87-85-147-104-182s-32-62-39-83-11-43-11-66c0-42 10-80 31-115C167 12 242-31 329-31m0 128c-57 0-104 36-104 97 0 29 10 54 29 75s44 31 75 31c28 0 52-10 73-29 21-20 31-45 31-76 0-56-45-98-104-98z"/>
    <glyph unicode="₇" horiz-adv-x="655" d="M145 0h147l291 506v125H120V503h315z"/>
    <glyph unicode="₈" horiz-adv-x="618" d="M308-31c119 0 214 90 214 205 0 60-25 116-66 153 32 35 52 82 52 130 0 111-91 195-200 195s-198-84-198-195c0-48 20-95 52-130-41-37-66-93-66-153C96 59 191-31 308-31m0 418c-37 0-70 33-70 70 0 39 31 67 70 67 41 0 72-27 72-67 0-37-32-70-72-70m0-292c-47 0-84 34-84 79 0 47 37 85 84 85 48 0 86-38 86-85 0-45-38-79-86-79z"/>
    <glyph unicode="₉" horiz-adv-x="659" d="M307 204c37 0 71 8 102 23V0h129v427c0 128-103 230-231 230S75 555 75 431c0-125 104-227 232-227M202 427c0 56 47 102 104 102 56 0 103-46 103-102s-47-102-103-102c-57 0-104 46-104 102z"/>
    <glyph unicode="↖" horiz-adv-x="1102" d="M881 279l141 142-600 600h388v200H80V491h200v388z"/>
    <glyph unicode="↗" horiz-adv-x="1101" d="M221 280l600 599V490h200v730H290v-200h390L80 421z"/>
    <glyph unicode="↘" horiz-adv-x="1101" d="M291 280h730v730H821V621l-600 599-141-141 600-599H291z"/>
    <glyph unicode="↙" horiz-adv-x="1101" d="M80 280h730v200H421l600 599-141 141-600-599v389H80z"/>
    <glyph unicode="�" horiz-adv-x="1630" d="M816-26c73 0 145 29 198 82l414 414c55 55 82 125 82 200 0 73-27 143-82 198l-414 414c-55 55-125 82-198 82-75 0-145-27-200-82L202 868c-53-53-82-125-82-198 0-75 27-145 82-200L616 56c55-55 125-82 200-82m72 541H747v2c0 80 42 152 113 188 29 15 47 49 47 86 0 55-42 97-97 97-53 0-97-43-97-97H571c0 43 11 83 32 120 43 72 120 118 207 118 43 0 83-11 120-32 73-43 119-119 119-206 0-89-47-167-123-211-23-13-38-38-38-63m-66-237c-40 0-71 32-71 72 0 39 31 70 71 70s71-31 71-70c0-40-31-72-71-72z"/>
    <glyph unicode="v" horiz-adv-x="1106" d="M681 0l365 1002H833L553 232l-280 770H60L425 0z"/>
    <glyph unicode="w" horiz-adv-x="1671" d="M595 0l240 720L1076 0h201l334 1001h-196l-240-715-238 715H735L496 286l-240 715H60L395 0z"/>
    <glyph unicode="ẃ" horiz-adv-x="1671" d="M795 1138h102l178 288H875M595 0l240 720L1076 0h201l334 1001h-196l-240-715-238 715H735L496 286l-240 715H60L395 0z"/>
    <glyph unicode="ŵ" horiz-adv-x="1671" d="M741 1400l-101-234h133l65 153 63-153h133l-100 234M595 0l240 720L1076 0h201l334 1001h-196l-240-715-238 715H735L496 286l-240 715H60L395 0z"/>
    <glyph unicode="ẅ" horiz-adv-x="1671" d="M657 1168c60 0 106 46 106 106 0 29-10 55-31 76s-46 31-75 31c-31 0-56-10-77-31s-32-47-32-76c0-30 11-55 32-75 21-21 46-31 77-31m361 0c30 0 55 10 76 31 21 20 31 45 31 75 0 29-10 55-31 76s-47 31-76 31c-31 0-56-10-77-31s-31-46-31-76c0-61 47-106 108-106M595 0l240 720L1076 0h201l334 1001h-196l-240-715-238 715H735L496 286l-240 715H60L395 0z"/>
    <glyph unicode="ẁ" horiz-adv-x="1671" d="M612 1426l178-288h102l-80 288M595 0l240 720L1076 0h201l334 1001h-196l-240-715-238 715H735L496 286l-240 715H60L395 0z"/>
    <glyph unicode="x" horiz-adv-x="1139" d="M80 0h247l242 333L812 0h247L693 502l363 500H810L569 673l-240 329H82l364-500z"/>
    <glyph unicode="y" horiz-adv-x="1098" d="M805 1000L539 274l-240 726H80L439 1 258-500h213l547 1500z"/>
    <glyph unicode="ý" horiz-adv-x="1098" d="M536 1138h102l178 288H616m189-426L539 274l-240 726H80L439 1 258-500h213l547 1500z"/>
    <glyph unicode="ŷ" horiz-adv-x="1098" d="M507 1400l-101-234h133l65 153 63-153h133l-100 234m105-400L539 274l-240 726H80L439 1 258-500h213l547 1500z"/>
    <glyph unicode="ÿ" horiz-adv-x="1098" d="M402 1168c60 0 106 46 106 106 0 29-10 55-31 76s-46 31-75 31c-31 0-56-10-77-31s-32-47-32-76c0-30 11-55 32-75 21-21 46-31 77-31m361 0c30 0 55 10 76 31 21 20 31 45 31 75 0 29-10 55-31 76s-47 31-76 31c-31 0-56-10-77-31s-31-46-31-76c0-61 47-106 108-106m42-168L539 274l-240 726H80L439 1 258-500h213l547 1500z"/>
    <glyph unicode="¥" horiz-adv-x="1290" d="M545 0h200v167h264v142H745v124h264v142H745v58l477 767H986L645 850l-341 550H68l477-767v-58H281V433h264V309H281V167h264z"/>
    <glyph unicode="ỳ" horiz-adv-x="1098" d="M349 1426l178-288h102l-80 288m256-426L539 274l-240 726H80L439 1 258-500h213l547 1500z"/>
    <glyph unicode="z" horiz-adv-x="1077" d="M966 800v200H112V800h567L112 200V0h854v200H398z"/>
    <glyph unicode="0" horiz-adv-x="1201" d="M602-26c107 0 201 32 283 97 81 65 144 152 189 263s67 233 67 366c0 134-22 256-67 367s-108 198-189 263c-82 64-176 96-283 96s-201-32-283-97c-83-65-146-152-191-262-45-111-68-233-68-367 0-133 23-255 68-366S236 136 319 71c82-65 176-97 283-97m0 200c-75 0-140 24-193 72-53 47-93 111-120 191s-41 168-41 263 13 183 40 263c26 79 66 143 119 191s118 72 195 72c74 0 137-23 190-69 105-92 161-258 161-457 0-96-13-184-40-263-27-80-66-144-119-191-53-48-117-72-192-72z"/>
  </font>
</svg>
